<?xml version="1.0" standalone="no"?>
<!DOCTYPE svg PUBLIC "-//W3C//DTD SVG 1.1//EN" "http://www.w3.org/Graphics/SVG/1.1/DTD/svg11.dtd" >
<svg xmlns="http://www.w3.org/2000/svg" xmlns:xlink="http://www.w3.org/1999/xlink" version="1.1">
<metadata>
Created by FontForge 20170731 at Thu Jan 14 12:16:35 2016
 By Aleksey,,,
(URW)++,Copyright 2015 by (URW)++ Design &#38; Development
</metadata>
<defs>
<font id="URWGeometric-ExtraLight" horiz-adv-x="792" >
  <font-face 
    font-family="URW Geometric ExtLt"
    font-weight="265"
    font-stretch="normal"
    units-per-em="2048"
    panose-1="0 0 0 0 0 0 0 0 0 0"
    ascent="1505"
    descent="-543"
    x-height="908"
    cap-height="1365"
    bbox="-239 -497 2473 2137"
    underline-thickness="73"
    underline-position="-310"
    unicode-range="U+0020-FB04"
  />
<missing-glyph horiz-adv-x="539" 
d="M485 0h-431v1365h431v-1365zM108 54h323v1257h-323v-1257z" />
    <glyph glyph-name="afii61352" unicode="Nr&#x2e;" horiz-adv-x="2157" 
d="M1738 1385q124 0 207 -93q71 -80 71 -188q0 -128 -91 -210q-79 -72 -192 -72q-129 0 -211 93q-71 80 -71 191q0 123 92 207q79 72 195 72zM1731 1316q-89 0 -147 -60q-58 -59 -58 -152q0 -102 67 -162q59 -51 141 -51q95 0 155 65q52 58 52 150q0 101 -67 159
q-58 51 -143 51zM1982 599h-497v71h497v-71zM1180 0l-913 1241v-1241h-90v1365h100l914 -1240v1240h90v-1365h-101z" />
    <glyph glyph-name="ff" unicode="ff" horiz-adv-x="967" 
d="M79 908h99v171q0 172 70 233q50 44 119 44q30 0 69 -11v-79q-34 8 -53 8q-63 0 -91.5 -46.5t-28.5 -148.5v-171h177v-78h-177v-830h-85v830h-99v78zM556 908h99v191q0 172 70 233q50 44 119 44q30 0 69 -11v-78q-29 7 -53 7q-63 0 -91.5 -46.5t-28.5 -148.5v-191h177v-78
h-177v-830h-85v830h-99v78z" />
    <glyph glyph-name="fi" unicode="fi" horiz-adv-x="849" 
d="M79 908h99v191q0 172 70 233q50 44 119 44q30 0 69 -11v-78q-29 7 -53 7q-63 0 -91.5 -46.5t-28.5 -148.5v-191h177v-78h-177v-830h-85v830h-99v78zM621 908h85v-908h-85v908zM664 1275q28 0 48 -20.5t20 -48.5q0 -29 -20.5 -49.5t-48.5 -20.5t-48.5 20.5t-20.5 48.5
q0 29 20.5 49.5t49.5 20.5z" />
    <glyph glyph-name="fl" unicode="fl" horiz-adv-x="851" 
d="M79 908h99v191q0 172 70 233q50 44 119 44q30 0 69 -11v-78q-29 7 -53 7q-63 0 -91.5 -46.5t-28.5 -148.5v-191h177v-78h-177v-830h-85v830h-99v78zM707 1365v-1365h-85v1365h85z" />
    <glyph glyph-name="ffi" unicode="ffi" horiz-adv-x="1322" 
d="M79 908h99v171q0 172 70 233q50 44 119 44q30 0 69 -11v-79q-34 8 -53 8q-63 0 -91.5 -46.5t-28.5 -148.5v-171h177v-78h-177v-830h-85v830h-99v78zM556 908h99v191q0 172 70 233q50 44 119 44q30 0 69 -11v-78q-29 7 -53 7q-63 0 -91.5 -46.5t-28.5 -148.5v-191h177v-78
h-177v-830h-85v830h-99v78zM1094 908h85v-908h-85v908zM1138 1275q28 0 48 -20.5t20 -48.5q0 -29 -20.5 -49.5t-48.5 -20.5t-48.5 20.5t-20.5 48.5q0 29 20.5 49.5t49.5 20.5z" />
    <glyph glyph-name="ffl" unicode="ffl" horiz-adv-x="1325" 
d="M79 908h99v171q0 172 70 233q50 44 119 44q30 0 69 -11v-79q-34 8 -53 8q-63 0 -91.5 -46.5t-28.5 -148.5v-171h177v-78h-177v-830h-85v830h-99v78zM556 908h99v191q0 172 70 233q50 44 119 44q30 0 69 -11v-78q-29 7 -53 7q-63 0 -91.5 -46.5t-28.5 -148.5v-191h177v-78
h-177v-830h-85v830h-99v78zM1181 1365v-1365h-85v1365h85z" />
    <glyph glyph-name=".notdef" horiz-adv-x="539" 
d="M485 0h-431v1365h431v-1365zM108 54h323v1257h-323v-1257z" />
    <glyph glyph-name="glyph1" horiz-adv-x="0" 
 />
    <glyph glyph-name="glyph2" horiz-adv-x="539" 
 />
    <glyph glyph-name="space" unicode=" " horiz-adv-x="539" 
 />
    <glyph glyph-name="exclam" unicode="!" horiz-adv-x="532" 
d="M304 323h-77l-12 1042h101zM267 121q27 0 47 -20t20 -48t-20 -48.5t-48 -20.5t-48 20.5t-20 48.5t20.5 48t48.5 20z" />
    <glyph glyph-name="quotedbl" unicode="&#x22;" horiz-adv-x="593" 
d="M193 1365l-15 -471h-61l-15 471h91zM490 1365l-15 -471h-61l-14 471h90z" />
    <glyph glyph-name="numbersign" unicode="#" horiz-adv-x="1201" 
d="M130 480h161l81 404h-160l14 67h160l86 424l70 -16l-82 -408h391l85 425l71 -16l-83 -409h161l-14 -67h-160l-81 -404h160l-14 -67h-160l-85 -424l-71 17l82 407h-390l-86 -424l-70 17l82 407h-162zM446 884l-81 -404h391l81 404h-391z" />
    <glyph glyph-name="dollar" unicode="$" horiz-adv-x="1142" 
d="M538 1383v187h88v-187q170 -19 283 -177l-71 -46q-110 143 -265 143q-137 0 -219 -93q-69 -78 -69 -176q0 -166 227 -255l138 -54q159 -63 233 -146.5t74 -201.5q0 -145 -92 -254q-93 -109 -239 -135v-200h-88v192q-139 0 -243 83q-105 84 -145 224l87 25q28 -94 82 -153
q92 -95 228 -95q146 0 241 104q79 88 79 207q0 95 -61 159q-60 63 -207 122l-132 52q-163 64 -226 163q-44 73 -44 163q0 144 93 238t248 111z" />
    <glyph glyph-name="percent" unicode="%" horiz-adv-x="1851" 
d="M1426 822q158 0 233.5 -102t75.5 -315q0 -416 -306 -416q-155 0 -225 100q-77 110 -77 322q0 411 299 411zM1431 750q-225 0 -225 -351q0 -95 24 -174q24 -81 63 -115q55 -49 138 -49q225 0 225 342q0 347 -225 347zM508 21l783 1353l52 -30l-783 -1354zM416 1377
q157 0 232.5 -102t75.5 -314q0 -416 -303 -416q-156 0 -230.5 103.5t-74.5 317.5q0 411 300 411zM420 1305q-225 0 -225 -351q0 -94 24 -174t63 -114q55 -49 138 -49q225 0 225 342q0 346 -225 346z" />
    <glyph glyph-name="ampersand" unicode="&#x26;" horiz-adv-x="1275" 
d="M448 760l26 20l-28 34q-141 172 -141 306q0 118 86 198q73 67 187 67q126 0 201 -84q65 -74 65 -171q0 -86 -54 -164q-55 -80 -181 -177l-26 -21l398 -482q60 97 112 247l79 -22q-59 -179 -135 -293l180 -218h-105l-126 154q-158 -174 -399 -174q-104 0 -194 35.5
t-146 98.5q-90 101 -90 230q0 109 65 204q62 91 214 203q8 5 12 9zM517 847l18 -21l20 15q112 85 164 155q48 68 48 140q0 80 -57 130q-56 48 -135 48q-89 0 -145 -62q-48 -52 -48 -125q0 -117 135 -280zM932 220l-410 502l-15 -12q-56 -42 -105 -83q-85 -73 -118 -133
q-41 -73 -41 -143q0 -119 96 -205q92 -85 252 -85q204 0 341 159z" />
    <glyph glyph-name="quotesingle" unicode="'" horiz-adv-x="295" 
d="M193 1365l-15 -471h-61l-15 471h91z" />
    <glyph glyph-name="parenleft" unicode="(" horiz-adv-x="567" 
d="M423 -319l-76 -35q-41 85 -73 206q-90 340 -90 714q0 188 29 399q29 206 78 371q22 75 56 149l76 -35q-152 -396 -152 -885q0 -488 152 -884z" />
    <glyph glyph-name="parenright" unicode=")" horiz-adv-x="567" 
d="M219 -354l-76 35q152 394 152 884q0 491 -152 885l76 35q41 -87 73 -207q90 -340 90 -712q0 -197 -28 -400q-28 -207 -78 -372q-23 -79 -57 -148z" />
    <glyph glyph-name="asterisk" unicode="*" horiz-adv-x="914" 
d="M150 1217l26 80l250 -93l-11 266h84l-11 -266l250 93l26 -80l-257 -72l166 -209l-68 -49l-148 221l-148 -221l-68 49l166 209z" />
    <glyph glyph-name="plus" unicode="+" horiz-adv-x="1139" 
d="M124 677h407v409h78v-409h407v-53v-21h-407v-410h-78v410h-407v53v21z" />
    <glyph glyph-name="comma" unicode="," horiz-adv-x="427" 
d="M117 -294l-55 22l154 434l85 -31z" />
    <glyph glyph-name="hyphen" unicode="-" horiz-adv-x="495" 
d="M89 433v76h317v-76h-317z" />
    <glyph glyph-name="period" unicode="." horiz-adv-x="425" 
d="M214 121q27 0 47 -20t20 -48t-20 -48.5t-48 -20.5q-27 0 -47.5 20.5t-20.5 48.5t20 48t49 20z" />
    <glyph glyph-name="slash" unicode="/" horiz-adv-x="1091" 
d="M126 29l773 1347l66 -40l-773 -1347z" />
    <glyph glyph-name="zero" unicode="0" horiz-adv-x="1164" 
d="M583 1385q270 0 384 -201q102 -180 102 -502q0 -320 -102 -501q-113 -201 -387 -201q-172 0 -285 86q-199 154 -199 626q0 314 102 493q116 200 385 200zM584 1302q-398 0 -398 -644q0 -246 91 -424q40 -79 126 -127q80 -44 179 -44q143 0 239 87q158 143 158 533
q0 287 -91 448q-46 83 -126 126q-80 45 -178 45z" />
    <glyph glyph-name="one" unicode="1" horiz-adv-x="577" 
d="M400 1365v-1365h-89v1274l-242 -141l-42 72l274 160h99z" />
    <glyph glyph-name="two" unicode="2" horiz-adv-x="983" 
d="M914 0h-809v96l510 564q178 198 178 355q0 131 -91 213q-82 75 -210 75q-227 0 -305 -240l-81 22q32 109 91 174q116 126 302 126q182 0 289 -119q92 -104 92 -250q0 -84 -27 -148q-51 -124 -162 -247l-485 -538h708v-83z" />
    <glyph glyph-name="three" unicode="3" horiz-adv-x="945" 
d="M402 677v79h64q116 0 197 89q68 74 68 184q0 127 -86 205q-77 69 -200 69q-160 0 -264 -137l-72 42q126 177 338 177q181 0 284 -115q86 -98 86 -236q0 -203 -171 -310q204 -114 204 -346q0 -190 -124 -299q-111 -99 -284 -99q-144 0 -248 74q-106 74 -146 204l-2 10
l86 24q38 -101 83 -146q81 -82 226 -82q159 0 244 96q77 86 77 214q0 145 -94 233q-76 70 -204 70h-62z" />
    <glyph glyph-name="four" unicode="4" horiz-adv-x="1056" 
d="M654 1377l73 -46l-560 -933h541v376h89v-376h174v-82h-174v-316h-89v316h-633v95z" />
    <glyph glyph-name="five" unicode="5" horiz-adv-x="1044" 
d="M864 1282h-487l-90 -450q4 1 32 13q75 34 170 34q205 0 335 -144q111 -123 111 -300q0 -210 -148 -346q-118 -109 -296 -109q-256 0 -395 210l70 51q111 -177 322 -177q170 0 266 110q93 105 93 254q0 170 -119 278q-104 92 -244 92q-138 0 -235 -89l-73 16l127 640h561
v-83z" />
    <glyph glyph-name="six" unicode="6" horiz-adv-x="1103" 
d="M206 736l449 638l68 -51l-353 -504q85 41 180 41q207 0 336 -141q107 -118 107 -284q0 -205 -149 -342q-124 -113 -294 -113q-197 0 -329 146q-117 129 -117 307q0 157 102 303zM549 780q-162 0 -267 -116q-89 -100 -89 -238q0 -164 119 -274q99 -90 239 -90
q156 0 261 118q92 104 92 253q0 143 -95 240q-107 107 -260 107z" />
    <glyph glyph-name="seven" unicode="7" horiz-adv-x="913" 
d="M126 32l659 1250h-737v83h831v-85l-675 -1290z" />
    <glyph glyph-name="eight" unicode="8" horiz-adv-x="1026" 
d="M319 726q-69 43 -108 97q-69 96 -69 210q0 156 116 260q101 92 256 92q176 0 281 -117q90 -100 90 -235q0 -197 -177 -307q223 -123 223 -355q0 -177 -124 -286q-119 -105 -293 -105q-124 0 -231 60q-87 51 -136 133q-51 85 -51 198q0 232 223 355zM508 677
q-154 0 -246 -102q-78 -85 -78 -205q0 -136 99 -226q90 -81 231 -81q161 0 252 103q77 86 77 206q0 134 -98 224q-89 81 -237 81zM511 1304q-134 0 -218 -92q-68 -76 -68 -185q0 -118 89 -198q81 -72 199 -72q136 0 220 92q69 77 69 183q0 120 -87 200q-79 72 -204 72z" />
    <glyph glyph-name="nine" unicode="9" horiz-adv-x="1108" 
d="M898 629l-448 -639l-69 52l354 505q-84 -36 -177 -36q-217 0 -342 140q-105 115 -105 281q0 203 149 340q124 113 295 113q201 0 331 -145q114 -128 114 -306q0 -160 -102 -305zM554 1303q-157 0 -262 -118q-93 -103 -93 -254q0 -153 109 -250q99 -90 244 -90
q167 0 272 116q88 97 88 235q0 163 -118 271q-99 90 -240 90z" />
    <glyph glyph-name="colon" unicode=":" horiz-adv-x="425" 
d="M214 121q27 0 47 -20t20 -48t-20 -48.5t-48 -20.5q-27 0 -47.5 20.5t-20.5 48.5t20 48t49 20zM214 870q27 0 47 -20t20 -47q0 -29 -20 -49t-48 -20t-48 20.5t-20 48.5q0 27 20.5 47t48.5 20z" />
    <glyph glyph-name="semicolon" unicode=";" horiz-adv-x="430" 
d="M117 -294l-55 22l154 434l85 -31zM251 814q27 0 47 -20t20 -48t-20 -48t-48 -20t-48 20.5t-20 47.5q0 28 20 48t49 20z" />
    <glyph glyph-name="less" unicode="&#x3c;" horiz-adv-x="1111" 
d="M139 739l833 391v-92l-761 -348l761 -349v-92l-833 392v98z" />
    <glyph glyph-name="equal" unicode="=" horiz-adv-x="1139" 
d="M182 543h775v-76h-775v76zM182 812h775v-76h-775v76z" />
    <glyph glyph-name="greater" unicode="&#x3e;" horiz-adv-x="1111" 
d="M972 640l-833 -391v93l761 348l-761 348v92l833 -392v-98z" />
    <glyph glyph-name="question" unicode="?" horiz-adv-x="842" 
d="M439 323h-86v121q0 91 20 136q19 43 90 103l93 80q149 129 149 279q0 121 -82 194q-73 67 -200 67q-92 0 -156 -35t-122 -116l-63 54q116 179 338 179q192 0 289 -108q84 -93 84 -235q0 -89 -31 -154q-41 -86 -129 -164l-111 -100q-55 -49 -69 -82t-14 -116v-103z
M398 121q27 0 47 -20t20 -48t-20 -48.5t-48 -20.5q-27 0 -47.5 20.5t-20.5 48.5t20 48t49 20z" />
    <glyph glyph-name="at" unicode="@" horiz-adv-x="1868" 
d="M1054 1054h220l-92 -716h75q167 0 261 105q46 54 73.5 142.5t27.5 186.5q0 187 -85 341q-73 132 -208 202t-318 70q-242 0 -429 -105q-144 -80 -233 -234q-98 -172 -98 -383q0 -297 186 -484q196 -198 570 -198q217 0 443 70l25 -68q-228 -71 -462 -71q-289 0 -500 112
q-145 78 -234 236q-101 182 -101 401q0 230 108 422q94 166 256 257q205 114 463 114q219 0 379 -91q143 -83 221 -222q90 -163 90 -363q0 -216 -100 -347q-65 -87 -155 -125q-89 -37 -236 -37h-285q-158 0 -257 107q-84 90 -84 244q0 125 62 234q116 200 417 200zM933 338
h176l82 647h-157q-195 0 -293 -110q-90 -102 -90 -251q0 -143 85 -218q77 -68 197 -68z" />
    <glyph glyph-name="A" unicode="A" horiz-adv-x="1248" 
d="M279 404l-159 -404h-93l544 1365h105l544 -1365h-94l-159 404h-688zM622 1277l-311 -790h623z" />
    <glyph glyph-name="B" unicode="B" horiz-adv-x="1062" 
d="M509 0h-332v1365h261q193 0 291 -56q68 -39 113 -115q48 -83 48 -176q0 -104 -52 -183t-147 -122q97 -28 157 -83q113 -104 113 -266q0 -208 -187 -311q-95 -53 -265 -53zM266 1283v-544h196q80 0 126 9q45 8 84 30q61 34 98 97q36 61 36 139q0 72 -32.5 133t-88.5 93
q-74 43 -223 43h-196zM266 661v-578h231q155 0 234 45q67 38 104.5 102.5t37.5 140.5q0 107 -69 187q-50 56 -123 80q-77 23 -204 23h-211z" />
    <glyph glyph-name="C" unicode="C" horiz-adv-x="1343" 
d="M1253 1189l-61 -61q-171 173 -403 173q-268 0 -440 -196q-158 -179 -158 -424q0 -173 84 -318q79 -139 217 -219q140 -80 300 -80q227 0 409 178l60 -62q-205 -200 -467 -200q-188 0 -348 92q-160 93 -253 258q-93 164 -93 351q0 193 96 359q93 160 248 252
q160 93 347 93q260 0 462 -196z" />
    <glyph glyph-name="D" unicode="D" horiz-adv-x="1267" 
d="M177 0v1365h257q248 0 424 -101q147 -85 221 -217q88 -157 88 -363q0 -292 -163 -467q-199 -217 -570 -217h-257zM441 1281h-174v-1197h174q210 0 360 87q128 73 196 194q80 142 80 319q0 250 -144 406q-177 191 -492 191z" />
    <glyph glyph-name="E" unicode="E" horiz-adv-x="961" 
d="M840 1365v-82h-573v-549h509v-83h-509v-567h594v-84h-684v1365h663z" />
    <glyph glyph-name="F" unicode="F" horiz-adv-x="879" 
d="M790 1365v-82h-523v-549h477v-83h-477v-651h-90v1365h613z" />
    <glyph glyph-name="G" unicode="G" horiz-adv-x="1492" 
d="M1299 591h-419v83h510v-46q0 -217 -89 -372q-76 -129 -199 -200q-131 -76 -304 -76q-190 0 -350 92q-161 93 -255 259q-93 163 -93 351q0 193 97 359q92 159 247 251q160 93 348 93q261 0 462 -195l-61 -61q-169 172 -403 172q-269 0 -441 -196q-158 -179 -158 -423
q0 -172 83 -317q82 -142 220 -221q139 -80 300 -80q196 0 331 114q86 73 127.5 171t46.5 242z" />
    <glyph glyph-name="H" unicode="H" horiz-adv-x="1331" 
d="M267 1365v-631h796v631h90v-1365h-90v651h-796v-651h-90v1365h90z" />
    <glyph glyph-name="I" unicode="I" horiz-adv-x="445" 
d="M177 1365h90v-1365h-90v1365z" />
    <glyph glyph-name="J" unicode="J" horiz-adv-x="796" 
d="M528 1365h90v-964q0 -180 -59 -283q-35 -60 -98 -97q-73 -41 -162 -41q-76 0 -138 28q-65 30 -141 95l53 64q66 -57 115.5 -80t107.5 -23q232 0 232 337v964z" />
    <glyph glyph-name="K" unicode="K" horiz-adv-x="1130" 
d="M1075 1365l-502 -556l530 -809h-105l-485 743l-246 -273v-470h-90v1365h90v-780l701 780h107z" />
    <glyph glyph-name="L" unicode="L" horiz-adv-x="858" 
d="M177 0v1365h90v-1281h552v-84h-642z" />
    <glyph glyph-name="M" unicode="M" horiz-adv-x="1672" 
d="M881 330h-91l-523 909v-1239h-90v1365h111l548 -949l547 949h111v-1365h-90v1239z" />
    <glyph glyph-name="N" unicode="N" horiz-adv-x="1459" 
d="M1180 0l-913 1241v-1241h-90v1365h100l914 -1240v1240h90v-1365h-101z" />
    <glyph glyph-name="O" unicode="O" horiz-adv-x="1569" 
d="M784 1385q183 0 338 -93q162 -98 254 -259q93 -163 93 -351t-94 -351q-94 -166 -257 -260q-157 -91 -338 -91q-172 0 -329 91q-164 95 -257 260q-94 163 -94 362q0 183 93 340q100 167 255 259q158 93 336 93zM781 1301q-255 0 -431 -198q-159 -177 -159 -432
q0 -160 83 -305q81 -141 223 -223q136 -79 287 -79q152 0 288 79q144 84 223 223q83 146 83 315q0 280 -203 468q-166 152 -394 152z" />
    <glyph glyph-name="P" unicode="P" horiz-adv-x="945" 
d="M177 0v1365h257q185 0 277 -53q79 -46 124 -126q55 -97 55 -212q0 -162 -98 -274q-58 -66 -140 -93q-81 -28 -218 -28h-167v-579h-90zM267 1283v-622h186q134 0 208 43q62 35 95 95q45 79 45 176q0 88 -36.5 158t-101.5 107q-76 43 -210 43h-186z" />
    <glyph glyph-name="Q" unicode="Q" horiz-adv-x="1564" 
d="M1215 139l137 -140l-57 -58l-146 150q-167 -111 -365 -111q-175 0 -332 91q-164 95 -258 260q-94 163 -94 351t93 351q94 164 255 259q157 93 337 93q179 0 337 -93q162 -95 254 -259q93 -163 93 -352q0 -255 -164 -452q-41 -48 -90 -90zM1088 153l-117 120l57 57
l127 -130q61 50 110 119q113 161 113 361q0 174 -85 322q-81 142 -219 221q-133 78 -289 78q-155 0 -290 -78q-138 -79 -219 -222q-85 -146 -85 -319q0 -171 83 -316q81 -141 223 -223q137 -79 290 -79t301 89z" />
    <glyph glyph-name="R" unicode="R" horiz-adv-x="1063" 
d="M177 0v1365h257q202 0 305 -58q82 -46 132 -133q55 -94 55 -208q0 -130 -70 -227q-71 -99 -191 -133l333 -606h-101l-319 587q-70 -9 -144 -9h-167v-578h-90zM267 1282v-622h186q158 0 244 49q64 36 99 98q41 71 41 160q0 87 -38.5 158t-106.5 109q-86 48 -239 48h-186z
" />
    <glyph glyph-name="S" unicode="S" horiz-adv-x="1015" 
d="M855 1206l-71 -46q-110 143 -265 143q-137 0 -219 -93q-69 -78 -69 -176q0 -166 227 -255l138 -54q159 -62 233 -146t74 -202q0 -176 -130 -293q-116 -104 -284 -104q-146 0 -248 80t-145 227l87 25q28 -94 82 -153q92 -95 228 -95q146 0 241 104q79 88 79 207
q0 95 -61 159t-206 122l-133 52q-163 64 -226 163q-44 73 -44 163q0 156 112 255q110 96 269 96q206 0 331 -179z" />
    <glyph glyph-name="T" unicode="T" horiz-adv-x="881" 
d="M853 1282h-368v-1282h-90v1282h-368v83h826v-83z" />
    <glyph glyph-name="U" unicode="U" horiz-adv-x="1299" 
d="M177 1365h90v-849q0 -109 11 -170t37 -107q40 -70 124 -119q98 -56 210 -56q153 0 266 96q68 58 92 132t24 224v849h90v-892q0 -170 -56 -268q-56 -96 -161 -157q-119 -68 -255 -68q-192 0 -329 121q-79 68 -110 153q-33 84 -33 219v892z" />
    <glyph glyph-name="V" unicode="V" horiz-adv-x="1108" 
d="M121 1365l433 -1267l433 1267h93l-470 -1365h-112l-471 1365h94z" />
    <glyph glyph-name="W" unicode="W" horiz-adv-x="1791" 
d="M1246 0l-351 1241l-351 -1241h-25h-78l-414 1365h93l373 -1252l352 1252h100l352 -1252l374 1252h93l-414 -1365h-27h-77z" />
    <glyph glyph-name="X" unicode="X" horiz-adv-x="1038" 
d="M70 1365h97l353 -574l353 574h94l-399 -648l442 -717h-100l-392 640l-393 -640h-98l443 714z" />
    <glyph glyph-name="Y" unicode="Y" horiz-adv-x="990" 
d="M450 0v573l-436 792h97l384 -708l385 708h97l-437 -792v-573h-90z" />
    <glyph glyph-name="Z" unicode="Z" horiz-adv-x="1039" 
d="M958 1270l-803 -1186h819v-84h-913v95l809 1187h-745v83h833v-95z" />
    <glyph glyph-name="bracketleft" unicode="[" horiz-adv-x="578" 
d="M271 -269h201v-80h-288v1829h288v-80h-201v-1669z" />
    <glyph glyph-name="backslash" unicode="\" horiz-adv-x="1091" 
d="M126 1336l66 40l773 -1347l-66 -40z" />
    <glyph glyph-name="bracketright" unicode="]" horiz-adv-x="578" 
d="M106 -349v80h201v1669h-201v80h288v-1829h-288z" />
    <glyph glyph-name="asciicircum" unicode="^" horiz-adv-x="957" 
d="M167 800h-103l348 569h134l347 -569h-104l-312 500z" />
    <glyph glyph-name="underscore" unicode="_" horiz-adv-x="989" 
d="M14 -237v73h962v-73h-962z" />
    <glyph glyph-name="grave" unicode="`" horiz-adv-x="975" 
d="M361 1355l174 -240l-49 -28l-217 218z" />
    <glyph glyph-name="a" unicode="a" horiz-adv-x="1130" 
d="M988 908v-908h-85v179q-67 -90 -130 -132q-106 -67 -233 -67q-200 0 -334 150q-121 134 -121 325q0 218 154 357q128 116 301 116q114 0 199.5 -47t163.5 -151v178h85zM539 849q-103 0 -189 -52q-81 -49 -125 -129q-52 -94 -52 -213q0 -194 124 -303q104 -92 245 -92
q162 0 267 116q97 106 97 282q0 192 -123 302q-101 89 -244 89z" />
    <glyph glyph-name="b" unicode="b" horiz-adv-x="1130" 
d="M228 0h-85v1365h85v-635q140 198 362 198q202 0 336 -150q120 -134 120 -323q0 -220 -154 -359q-128 -116 -302 -116q-224 0 -362 199v-179zM583 849q-155 0 -260 -115q-97 -106 -97 -279q0 -195 123 -305q102 -90 240 -90q164 0 272 117q97 106 97 282q0 189 -123 299
q-103 91 -252 91z" />
    <glyph glyph-name="c" unicode="c" horiz-adv-x="929" 
d="M863 796l-58 -59q-113 111 -260 111q-170 0 -276 -118q-96 -105 -96 -276q0 -192 122 -302q104 -92 253 -92q158 0 265 119l58 -59q-137 -140 -323 -140q-208 0 -342 150q-121 134 -121 325q0 219 154 358q127 115 309 115q93 0 165 -30q71 -30 150 -102z" />
    <glyph glyph-name="d" unicode="d" horiz-adv-x="1130" 
d="M988 1365v-1365h-85v179q-138 -199 -362 -199q-201 0 -335 150q-121 134 -121 325q0 218 154 357q128 116 302 116q223 0 362 -198v635h85zM536 849q-158 0 -266 -117q-97 -106 -97 -277q0 -194 124 -303q104 -92 245 -92q161 0 266 115q97 106 97 287q0 188 -123 298
q-100 89 -246 89z" />
    <glyph glyph-name="e" unicode="e" horiz-adv-x="1022" 
d="M938 418h-764q8 -115 64 -204q47 -73 122 -114q74 -40 168 -40q192 0 303 163l78 -33q-143 -210 -380 -210q-197 0 -323 142q-121 136 -121 332q0 222 152 365q118 109 278 109q182 0 303 -136q56 -63 88 -156.5t32 -195.5v-22zM174 491h678q-16 141 -78 228
q-43 61 -111.5 95.5t-146.5 34.5q-120 0 -211 -76q-121 -99 -131 -282z" />
    <glyph glyph-name="f" unicode="f" horiz-adv-x="494" 
d="M79 908h99v191q0 172 70 233q50 44 119 44q30 0 69 -11v-78q-29 7 -53 7q-63 0 -91.5 -46.5t-28.5 -148.5v-191h177v-78h-177v-830h-85v830h-99v78z" />
    <glyph glyph-name="g" unicode="g" horiz-adv-x="1130" 
d="M903 908h85v-925q0 -237 -143 -365q-130 -115 -324 -115q-120 0 -213.5 43t-176.5 137l57 58q52 -60 103 -95q97 -63 227 -63q187 0 291 116q94 104 94 284v30v166q-138 -199 -362 -199q-203 0 -336 150q-120 135 -120 325q0 218 154 357q128 116 302 116q223 0 362 -198
v178zM539 849q-103 0 -189 -52q-81 -49 -125 -129q-52 -94 -52 -213q0 -194 124 -303q104 -92 245 -92q162 0 267 116q97 106 97 282q0 192 -123 302q-101 89 -244 89z" />
    <glyph glyph-name="h" unicode="h" horiz-adv-x="1044" 
d="M228 1365v-605q105 168 316 168q166 0 266 -109q49 -53 70.5 -129t21.5 -196v-494h-85v476q0 164 -45 246q-33 58 -89 88q-67 36 -151 36q-83 0 -153 -36.5t-104 -96.5q-47 -85 -47 -259v-454h-85v1365h85z" />
    <glyph glyph-name="i" unicode="i" horiz-adv-x="372" 
d="M143 908h85v-908h-85v908zM187 1275q28 0 48 -20.5t20 -48.5q0 -29 -20.5 -49.5t-48.5 -20.5t-48.5 20.5t-20.5 48.5q0 29 20.5 49.5t49.5 20.5z" />
    <glyph glyph-name="j" unicode="j" horiz-adv-x="391" 
d="M-11 -478v79q34 -8 53 -8q63 0 91.5 46.5t28.5 148.5v1120h85v-1120q0 -172 -70 -233q-50 -44 -119 -44q-30 0 -69 11zM206 1275q28 0 48 -20.5t20 -48.5q0 -29 -20.5 -49.5t-48.5 -20.5t-48.5 20.5t-20.5 49.5t20.5 49t49.5 20z" />
    <glyph glyph-name="k" unicode="k" horiz-adv-x="924" 
d="M737 908h109l-359 -360l421 -548h-106l-373 491l-201 -202v-289h-85v1365h85v-970z" />
    <glyph glyph-name="l" unicode="l" horiz-adv-x="375" 
d="M230 1365v-1365h-85v1365h85z" />
    <glyph glyph-name="m" unicode="m" horiz-adv-x="1611" 
d="M143 908h85v-148q92 168 288 168q204 0 293 -191q105 191 316 191q202 0 291 -158q53 -95 53 -276v-494h-85v476q0 170 -45 254q-29 54 -85.5 85t-125.5 31q-74 0 -136.5 -34t-94.5 -91q-47 -86 -47 -267v-454h-85v476q0 168 -45 254q-29 53 -85 85q-56 31 -128 31
q-75 0 -137 -34t-96 -95q-46 -79 -46 -263v-454h-85v908z" />
    <glyph glyph-name="n" unicode="n" horiz-adv-x="1044" 
d="M143 908h85v-148q105 168 316 168q166 0 266 -109q49 -53 70.5 -129t21.5 -196v-494h-85v476q0 164 -45 246q-33 58 -89 88q-67 36 -151 36q-83 0 -153 -36.5t-104 -96.5q-47 -85 -47 -259v-454h-85v908z" />
    <glyph glyph-name="o" unicode="o" horiz-adv-x="1086" 
d="M550 928q198 0 331 -150q121 -134 121 -323q0 -220 -154 -359q-128 -116 -304 -116q-204 0 -338 150q-121 136 -121 325q0 183 111 313q136 160 354 160zM537 848q-157 0 -267 -117q-97 -106 -97 -276q0 -195 124 -304q103 -91 246 -91q167 0 274 117q97 106 97 282
q0 189 -124 298q-101 91 -253 91z" />
    <glyph glyph-name="p" unicode="p" horiz-adv-x="1130" 
d="M228 -478h-85v1386h85v-178q136 198 362 198q202 0 336 -150q120 -134 120 -323q0 -220 -154 -359q-128 -116 -302 -116q-223 0 -362 199v-657zM584 849q-156 0 -261 -115q-97 -106 -97 -279q0 -197 123 -306q101 -89 240 -89q164 0 272 118q97 106 97 275t-93 275
q-106 121 -281 121z" />
    <glyph glyph-name="q" unicode="q" horiz-adv-x="1130" 
d="M988 908v-1386h-85v657q-139 -199 -362 -199q-203 0 -336 150q-120 135 -120 325q0 218 154 357q128 116 302 116q225 0 362 -198v178h85zM539 849q-103 0 -189 -52q-81 -49 -125 -129q-52 -94 -52 -213q0 -195 124 -304q103 -91 245 -91q163 0 266 115q97 106 97 283
q0 192 -123 302q-101 89 -243 89z" />
    <glyph glyph-name="r" unicode="r" horiz-adv-x="583" 
d="M143 0v908h85v-148q33 53 65 80q38 33 106 53t130 15v-77h-22q-76 0 -138.5 -33.5t-94.5 -90.5q-26 -48 -36 -105q-10 -56 -10 -159v-443h-85z" />
    <glyph glyph-name="s" unicode="s" horiz-adv-x="747" 
d="M624 794l-70 -37q-39 51 -79.5 73t-97.5 22q-82 0 -134 -46q-53 -47 -53 -116q0 -66 46 -109q27 -26 137 -68l93 -37q104 -41 150 -93.5t46 -128.5q0 -119 -88 -198q-82 -76 -209 -76q-101 0 -171.5 48.5t-119.5 152.5l75 32q34 -62 67 -95q62 -60 155 -60q101 0 157 65
q47 55 47 122q0 65 -46 108q-18 18 -44 31q-27 13 -98 41l-104 41q-174 69 -174 217q0 107 78 175q80 70 194 70q151 0 243 -134z" />
    <glyph glyph-name="t" unicode="t" horiz-adv-x="487" 
d="M167 266v564h-109v78h109v230l85 34v-264h160v-78h-160v-564q0 -102 28.5 -148.5t91.5 -46.5q25 0 54 7v-78q-41 -11 -70 -11q-80 0 -132 57q-57 63 -57 220z" />
    <glyph glyph-name="u" unicode="u" horiz-adv-x="1044" 
d="M902 0h-85v148q-107 -168 -316 -168q-166 0 -266 109q-49 53 -70.5 129t-21.5 196v494h85v-476q0 -164 45 -246q32 -57 90 -88q67 -36 150 -36t153 36.5t104 97.5q47 83 47 258v454h85v-908z" />
    <glyph glyph-name="v" unicode="v" horiz-adv-x="909" 
d="M455 94l347 814h92l-392 -908h-94l-393 908h93z" />
    <glyph glyph-name="w" unicode="w" horiz-adv-x="1385" 
d="M443 0h-90l-338 908h93l291 -803l248 803h91l249 -804l291 804h92l-338 -908h-90l-249 792z" />
    <glyph glyph-name="x" unicode="x" horiz-adv-x="853" 
d="M800 908l-323 -434l352 -474h-100l-303 409l-302 -409h-100l353 473l-324 435h100l274 -370l275 370h98z" />
    <glyph glyph-name="y" unicode="y" horiz-adv-x="877" 
d="M173 -478l215 501l-373 885h94l324 -782l335 782h94l-602 -1386h-87z" />
    <glyph glyph-name="z" unicode="z" horiz-adv-x="857" 
d="M788 835v-7l-618 -749h639v-79h-737v80l619 750h-587v78h684v-73z" />
    <glyph glyph-name="braceleft" unicode="{" horiz-adv-x="595" 
d="M106 531v72q68 28 97 79q27 50 27 145v379q0 159 58 217q57 57 173 57h29v-76h-13q-91 0 -126 -39q-34 -38 -34 -145v-396q0 -102 -29.5 -162.5t-97.5 -96.5q67 -35 97 -97t30 -165v-393q0 -114 40 -150q37 -33 133 -33v-77h-21q-124 0 -181 57q-58 58 -58 218v378
q0 98 -27 149q-29 51 -97 79z" />
    <glyph glyph-name="bar" unicode="|" horiz-adv-x="990" 
d="M452 -360v1851h86v-1851h-86z" />
    <glyph glyph-name="braceright" unicode="}" horiz-adv-x="595" 
d="M490 603v-72q-68 -28 -96 -79q-28 -50 -28 -149v-378q0 -160 -58 -218q-57 -57 -181 -57h-21v77q102 0 138 37q35 38 35 146v393q0 103 30 165t97 97q-67 36 -97 97t-30 162v396q0 88 -21 125q-32 59 -139 59h-13v76h29q115 1 173 -57t58 -217v-379q0 -96 28 -145
q28 -51 96 -79z" />
    <glyph glyph-name="asciitilde" unicode="~" horiz-adv-x="1321" 
d="M248 1231l-44 28q51 98 100 145q57 54 144 54q79 0 219 -67q138 -67 210 -67q61 0 104 28t90 100l46 -27q-46 -87 -96 -131q-74 -62 -155 -62q-48 0 -90 14q-36 12 -193 82q-87 39 -153 39q-97 0 -182 -136z" />
    <glyph glyph-name="nbspace" unicode="&#xa0;" horiz-adv-x="539" 
 />
    <glyph glyph-name="exclamdown" unicode="&#xa1;" horiz-adv-x="532" 
d="M215 -377l12 1043h77l12 -1043h-101zM266 1006q28 0 48 -20.5t20 -48.5t-20 -48t-49 -20q-27 0 -47 20.5t-20 47.5q0 28 20 48.5t48 20.5z" />
    <glyph glyph-name="cent" unicode="&#xa2;" horiz-adv-x="1117" 
d="M557 0v213q-115 13 -205 75q-90 63 -143 164q-55 106 -55 231q0 185 113 316t290 152v214h87v-210q159 -11 289 -132l-59 -59q-112 112 -259 112q-171 0 -277 -117q-96 -106 -96 -277q0 -192 122 -302q104 -92 254 -92q157 0 264 119l58 -59q-118 -126 -296 -139v-209
h-87z" />
    <glyph glyph-name="sterling" unicode="&#xa3;" horiz-adv-x="1136" 
d="M815 640h-415l8 -38q30 -148 30 -216q0 -71 -22 -124.5t-74 -113.5q-28 -32 -66 -66h743v-82h-852v97q60 49 95 85q88 89 88 197q0 78 -33 233l-6 28h-144v80h127l-11 52q-20 98 -20 193q0 221 122 325q113 95 264 95q197 0 316 -179l-71 -47q-100 144 -251 144
q-131 0 -216 -90q-77 -82 -77 -249q0 -76 26 -206l7 -38h432v-80z" />
    <glyph glyph-name="currency" unicode="&#xa4;" horiz-adv-x="1480" 
d="M391 994l-190 194l46 45l188 -193q130 116 305 116q176 0 304 -115l188 192l46 -45l-189 -194q109 -128 109 -312q0 -174 -109 -310l189 -193l-45 -46l-189 193q-130 -117 -304 -117t-305 117l-189 -193l-45 46l189 194q-109 131 -109 309q0 181 110 312zM736 1076
q-102 0 -190 -52q-82 -49 -125 -128q-52 -95 -52 -213q0 -194 124 -303q103 -91 246 -91q167 0 273 117q98 107 98 280q0 190 -124 299q-103 91 -250 91z" />
    <glyph glyph-name="yen" unicode="&#xa5;" horiz-adv-x="1195" 
d="M552 0v500h-346v80h337v8l-108 197h-229v80h185l-275 500h98l383 -708l385 708h96l-275 -500h186v-80h-230l-109 -197v-8h339v-80h-347v-500h-90z" />
    <glyph glyph-name="brokenbar" unicode="&#xa6;" horiz-adv-x="990" 
d="M538 1491v-696h-86v696h86zM452 -360v696h86v-696h-86z" />
    <glyph glyph-name="section" unicode="&#xa7;" horiz-adv-x="1080" 
d="M789 87q110 -92 110 -238q0 -160 -109 -256q-102 -90 -269 -90q-202 0 -328 142q-38 43 -70 97l74 48q125 -203 327 -203q139 0 220 89q66 73 66 175q0 92 -62 156.5t-203 120.5l-131 51q-137 54 -202.5 133.5t-65.5 191.5q0 85 32 147q31 61 119 141q-126 93 -126 246
q0 154 111 252q109 95 265 95q201 0 321 -177l-70 -47q-103 142 -258 142q-132 0 -212 -90q-68 -77 -68 -175q0 -165 222 -252l137 -53q158 -62 231 -145t73 -201q0 -147 -93 -253q-35 -39 -41 -47zM375 744q-141 -104 -141 -239q0 -167 224 -254l137 -54q67 -26 122 -59
q64 68 91 124q25 51 25 123q0 95 -60 158t-204 120l-131 52q-25 10 -63 29z" />
    <glyph glyph-name="dieresis" unicode="&#xa8;" horiz-adv-x="975" 
d="M300 1274q28 0 48 -20t20 -48q0 -29 -20 -49t-49 -20q-27 0 -47.5 20.5t-20.5 47.5q0 29 20 49t49 20zM677 1274q27 0 47 -20t20 -48t-20 -48.5t-48 -20.5t-48.5 20.5t-20.5 47.5q0 29 20.5 49t49.5 20z" />
    <glyph glyph-name="copyright" unicode="&#xa9;" horiz-adv-x="1782" 
d="M1250 1016l-54 -54q-114 118 -265 118q-171 0 -283 -126q-101 -115 -101 -272q0 -181 129 -298q110 -98 257 -98q143 0 269 120l54 -54q-145 -142 -322 -142q-211 0 -348 155q-119 137 -119 317q0 128 65 241q61 107 167 169q107 63 234 63q174 0 317 -139zM901 1457
q201 0 377 -104q179 -105 284 -283q104 -179 104 -387q0 -207 -104 -388q-103 -179 -284 -283t-388 -104q-208 0 -386 103q-181 104 -284 282q-104 179 -104 384q0 206 104 391q132 235 394 337q131 52 287 52zM880 1388q-181 0 -342 -95q-163 -97 -258 -260
q-95 -164 -95 -353q0 -188 95 -352q94 -162 258 -257q163 -94 353 -94q187 0 353 95q164 94 259 258q94 163 94 358q0 305 -234 518q-200 182 -483 182z" />
    <glyph glyph-name="ordfeminine" unicode="&#xaa;" horiz-adv-x="744" 
d="M641 1374v-541h-69v91q-86 -102 -209 -102q-126 0 -210 94q-71 80 -71 188q0 125 92 208q79 73 189 73q126 0 209 -102v91h69zM362 1322q-92 0 -150 -61q-60 -61 -60 -157q0 -105 69 -165q61 -53 144 -53q96 0 157 67q53 59 53 153q0 102 -68 164q-58 52 -145 52z" />
    <glyph glyph-name="guillemotleft" unicode="&#xab;" horiz-adv-x="839" 
d="M482 454l240 -296l-54 -43l-275 339l275 347l54 -43zM178 454l240 -296l-54 -43l-275 339l276 347l53 -43z" />
    <glyph glyph-name="logicalnot" unicode="&#xac;" horiz-adv-x="1340" 
d="M1189 677v-485h-84v406h-955v79h1039z" />
    <glyph glyph-name="uni00AD" unicode="&#xad;" horiz-adv-x="495" 
d="M89 433v76h317v-76h-317z" />
    <glyph glyph-name="registered" unicode="&#xae;" horiz-adv-x="1782" 
d="M1007 621l225 -399h-92l-214 385q-55 -5 -113 -5h-89v-380h-79v921h207q132 0 200 -39q56 -31 91 -90q37 -65 37 -143q0 -89 -46.5 -156.5t-126.5 -93.5zM724 1070v-395h140q237 0 237 196q0 97 -60.5 148t-176.5 51h-140zM901 1457q201 0 377 -104q179 -105 284 -283
q104 -179 104 -387q0 -207 -104 -388q-103 -179 -284 -283t-388 -104q-208 0 -386 103q-181 104 -284 282q-104 179 -104 384q0 206 104 391q132 235 394 337q131 52 287 52zM880 1388q-181 0 -342 -95q-163 -97 -258 -260q-95 -164 -95 -353q0 -188 95 -352
q94 -162 258 -257q163 -94 353 -94q187 0 353 95q164 94 259 258q94 163 94 358q0 305 -234 518q-200 182 -483 182z" />
    <glyph glyph-name="overscore" unicode="&#xaf;" horiz-adv-x="975" 
d="M234 1170v78h507v-78h-507z" />
    <glyph glyph-name="degree" unicode="&#xb0;" horiz-adv-x="727" 
d="M436 1511q121 0 206 -94q71 -79 71 -187q0 -128 -93 -210q-80 -72 -188 -72q-126 0 -210 93q-72 79 -72 189q0 120 82 199q85 82 204 82zM431 1442q-92 0 -157 -71q-55 -58 -55 -143q0 -93 70 -156q61 -55 146 -55q90 0 155 71q54 58 54 141q0 94 -70 158q-61 55 -143 55
z" />
    <glyph glyph-name="plusminus" unicode="&#xb1;" horiz-adv-x="1139" 
d="M122 76h894v-76h-894v76zM122 775h407v410h80v-410h407v-74h-407v-410h-80v410h-407v74z" />
    <glyph glyph-name="twosuperior" unicode="&#xb2;" 
d="M654 832h-510v72l309 328q103 109 103 198q0 67 -49 110q-46 42 -119 42q-68 0 -109.5 -33.5t-65.5 -108.5l-72 20q20 72 56 111q72 83 195 83q116 0 184 -75q57 -65 57 -150q0 -113 -117 -236l-271 -289h409v-72z" />
    <glyph glyph-name="threesuperior" unicode="&#xb3;" 
d="M134 998l-3 10l75 20q21 -58 47 -87q44 -47 130 -47q92 0 140 54q41 47 41 112q0 73 -45.5 117.5t-121.5 44.5h-49v70h51q61 0 105 42q42 42 42 103q0 65 -44.5 105t-115.5 40q-91 0 -155 -82l-65 36q1 2 6.5 8t8.5 11q73 99 207 99q117 0 181 -73q53 -59 53 -141
q0 -115 -91 -178q110 -68 110 -199q0 -112 -76 -179q-71 -63 -181 -63q-93 0 -158.5 46.5t-91.5 130.5z" />
    <glyph glyph-name="acute" unicode="&#xb4;" horiz-adv-x="975" 
d="M489 1087l-49 28l174 240l92 -50z" />
    <glyph glyph-name="mu" unicode="&#xb5;" horiz-adv-x="1044" 
d="M228 121v-599h-85v1386h85v-476q0 -164 45 -246q32 -57 90 -88q67 -36 150 -36t153 36.5t104 97.5q47 83 47 258v454h85v-908h-85v143q-106 -163 -308 -163q-189 0 -281 141z" />
    <glyph glyph-name="paragraph" unicode="&#xb6;" horiz-adv-x="1313" 
d="M632 -478v951h-55q-189 0 -314 141q-113 128 -113 306q0 205 144 337q118 108 283 108h620v-74h-135v-1769h-78v1769h-273l-1 -1769h-78z" />
    <glyph glyph-name="middot" unicode="&#xb7;" horiz-adv-x="425" 
d="M214 752q27 0 47 -20t20 -48t-20 -48.5t-48 -20.5q-27 0 -47.5 20.5t-20.5 47.5q0 29 20 49t49 20z" />
    <glyph glyph-name="cedilla" unicode="&#xb8;" horiz-adv-x="975" 
d="M531 -129l83 -35l-172 -219l-55 28z" />
    <glyph glyph-name="onesuperior" unicode="&#xb9;" 
d="M467 1641v-810h-78v725l-137 -77l-38 62l178 100h75z" />
    <glyph glyph-name="ordmasculine" unicode="&#xba;" horiz-adv-x="733" 
d="M371 1385q125 0 209 -93q71 -80 71 -188q0 -127 -92 -210q-79 -72 -192 -72q-130 0 -214 93q-71 80 -71 191q0 124 92 207q80 72 197 72zM363 1322q-95 0 -157 -68q-54 -58 -54 -150q0 -104 69 -166q61 -53 145 -53q99 0 161 68q54 59 54 153q0 102 -69 163
q-59 53 -149 53z" />
    <glyph glyph-name="guillemotright" unicode="&#xbb;" horiz-adv-x="839" 
d="M475 115l-54 43l240 296l-240 304l53 43l276 -347zM171 115l-54 43l240 296l-240 304l54 43l275 -347z" />
    <glyph glyph-name="onequarter" unicode="&#xbc;" horiz-adv-x="1707" 
d="M343 21l783 1353l52 -30l-783 -1354zM1268 821l64 -39l-330 -529h290v217h78v-217h105v-72h-105v-181h-78v181h-379v70zM390 1365v-810h-78v724l-137 -76l-38 62l178 100h75z" />
    <glyph glyph-name="onehalf" unicode="&#xbd;" horiz-adv-x="1707" 
d="M343 21l783 1353l52 -30l-783 -1354zM1529 0h-510v72l309 329q103 109 103 196q0 68 -49 111q-46 42 -119 42q-68 0 -109.5 -33.5t-65.5 -107.5l-72 19q19 69 56 112q72 82 195 82q117 0 185 -75q56 -64 56 -150q0 -111 -117 -236l-271 -289h409v-72zM390 1365v-810h-78
v724l-137 -76l-38 62l178 100h75z" />
    <glyph glyph-name="threequarters" unicode="&#xbe;" horiz-adv-x="1707" 
d="M469 21l783 1353l52 -30l-783 -1354zM1349 821l65 -39l-331 -529h290v217h78v-217h105v-72h-105v-181h-78v181h-379v70zM123 721l-3 10l75 20q20 -56 47 -86q44 -47 130 -47q92 0 140 54q41 46 41 112q0 73 -46 117t-121 44h-49v71h51q62 0 105 42q42 40 42 102
q0 65 -44.5 105t-115.5 40q-91 0 -155 -82l-65 36q2 2 7 8.5t8 10.5q74 99 206 99q118 0 182 -73q53 -59 53 -141q0 -114 -91 -178q110 -68 110 -199q0 -111 -76 -178q-70 -63 -180 -63q-94 0 -159.5 46t-91.5 130z" />
    <glyph glyph-name="questiondown" unicode="&#xbf;" horiz-adv-x="842" 
d="M436 666h87v-121q0 -90 -20 -135q-18 -40 -91 -104l-93 -80q-149 -131 -149 -279q0 -121 82 -194q73 -67 200 -67q93 0 157 34.5t122 116.5l63 -54q-119 -179 -339 -179q-192 0 -289 108q-84 93 -84 235q0 89 31 154q40 84 129 164l111 100q55 49 69 81q14 34 14 117v103
zM480 1006q28 0 48 -20.5t20 -48.5t-20.5 -48t-48.5 -20t-47.5 20t-19.5 48t20 48.5t48 20.5z" />
    <glyph glyph-name="Agrave" unicode="&#xc0;" horiz-adv-x="1248" 
d="M500 1765l174 -240l-49 -28l-217 218zM279 404l-159 -404h-93l544 1365h105l544 -1365h-94l-159 404h-688zM622 1277l-311 -790h623z" />
    <glyph glyph-name="Aacute" unicode="&#xc1;" horiz-adv-x="1248" 
d="M616 1497l-49 28l174 240l92 -50zM279 404l-159 -404h-93l544 1365h105l544 -1365h-94l-159 404h-688zM622 1277l-311 -790h623z" />
    <glyph glyph-name="Acircumflex" unicode="&#xc2;" horiz-adv-x="1248" 
d="M623 1679l-193 -182l-57 28l204 224h93l204 -224l-57 -28zM279 404l-159 -404h-93l544 1365h105l544 -1365h-94l-159 404h-688zM622 1277l-311 -790h623z" />
    <glyph glyph-name="Atilde" unicode="&#xc3;" horiz-adv-x="1248" 
d="M440 1549l-66 15q29 128 133 128q44 0 132 -41q59 -28 102 -28q49 0 66 66l66 -15q-22 -127 -132 -127q-54 0 -127 37q-68 33 -105 33q-48 0 -69 -68zM279 404l-159 -404h-93l544 1365h105l544 -1365h-94l-159 404h-688zM622 1277l-311 -790h623z" />
    <glyph glyph-name="Adieresis" unicode="&#xc4;" horiz-adv-x="1248" 
d="M279 404l-159 -404h-93l544 1365h105l544 -1365h-94l-159 404h-688zM622 1277l-311 -790h623zM813 1688q27 0 47 -20.5t20 -47.5q0 -28 -20 -48.5t-48 -20.5t-48.5 20.5t-20.5 48.5t20.5 48t49.5 20zM436 1688q28 0 48 -20t20 -48t-20 -48.5t-49 -20.5q-27 0 -47.5 20.5
t-20.5 48.5t20.5 48t48.5 20z" />
    <glyph glyph-name="Aring" unicode="&#xc5;" horiz-adv-x="1248" 
d="M279 404l-159 -404h-93l544 1365h105l544 -1365h-94l-159 404h-688zM622 1277l-311 -790h623zM623 1772q65 0 112 -44q46 -45 46 -109q0 -68 -51 -113q-44 -40 -106 -40q-66 0 -112 45t-46 110q0 61 47 106t110 45zM623 1725q-45 0 -75.5 -31t-30.5 -76q0 -43 31.5 -74
t74.5 -31q45 0 76 31t31 75t-31 75t-76 31z" />
    <glyph glyph-name="AE" unicode="&#xc6;" horiz-adv-x="1723" 
d="M939 0v404h-610l-204 -404h-98l697 1365h878v-82h-573v-549h509v-83h-509v-567h594v-84h-684zM371 487h568v796h-166z" />
    <glyph glyph-name="Ccedilla" unicode="&#xc7;" horiz-adv-x="1343" 
d="M714 -129l83 -35l-172 -219l-55 28zM1253 1189l-61 -61q-171 173 -403 173q-268 0 -440 -196q-158 -179 -158 -424q0 -173 84 -318q79 -139 217 -219q140 -80 300 -80q227 0 409 178l60 -62q-205 -200 -467 -200q-188 0 -348 92q-160 93 -253 258q-93 164 -93 351
q0 193 96 359q93 160 248 252q160 93 347 93q260 0 462 -196z" />
    <glyph glyph-name="Egrave" unicode="&#xc8;" horiz-adv-x="961" 
d="M412 1765l174 -240l-49 -28l-217 218zM840 1365v-82h-573v-549h509v-83h-509v-567h594v-84h-684v1365h663z" />
    <glyph glyph-name="Eacute" unicode="&#xc9;" horiz-adv-x="961" 
d="M501 1497l-49 28l174 240l92 -50zM840 1365v-82h-573v-549h509v-83h-509v-567h594v-84h-684v1365h663z" />
    <glyph glyph-name="Ecircumflex" unicode="&#xca;" horiz-adv-x="961" 
d="M519 1679l-193 -182l-57 28l204 224h93l204 -224l-58 -28zM840 1365v-82h-573v-549h509v-83h-509v-567h594v-84h-684v1365h663z" />
    <glyph glyph-name="Edieresis" unicode="&#xcb;" horiz-adv-x="961" 
d="M840 1365v-82h-573v-549h509v-83h-509v-567h594v-84h-684v1365h663zM708 1688q27 0 47 -20t20 -48t-20 -48.5t-48 -20.5t-48.5 20.5t-20.5 47.5q0 29 20.5 49t49.5 20zM331 1688q28 0 48 -20.5t20 -47.5q0 -28 -20.5 -48.5t-48.5 -20.5q-27 0 -47.5 20.5t-20.5 47.5
q0 29 20 49t49 20z" />
    <glyph glyph-name="Igrave" unicode="&#xcc;" horiz-adv-x="445" 
d="M97 1765l174 -240l-49 -28l-217 218zM178 1365h90v-1365h-90v1365z" />
    <glyph glyph-name="Iacute" unicode="&#xcd;" horiz-adv-x="445" 
d="M223 1497l-49 28l174 240l92 -50zM177 1365h90v-1365h-90v1365z" />
    <glyph glyph-name="Icircumflex" unicode="&#xce;" horiz-adv-x="445" 
d="M223 1679l-194 -182l-57 28l204 224h93l204 -224l-57 -28zM178 1365h90v-1365h-90v1365z" />
    <glyph glyph-name="Idieresis" unicode="&#xcf;" horiz-adv-x="445" 
d="M177 1365h90v-1365h-90v1365zM361 1688q27 0 47 -20t20 -48t-20 -48.5t-48 -20.5t-48.5 20.5t-20.5 48.5t20.5 48t49.5 20zM86 1688q28 0 48 -20t20 -48t-20 -48.5t-49 -20.5q-27 0 -47.5 20.5t-20.5 47.5q0 29 20 49t49 20z" />
    <glyph glyph-name="Eth" unicode="&#xd0;" horiz-adv-x="1279" 
d="M190 0v699h-118v80h118v586h257q248 0 424 -101q147 -85 220 -217q89 -158 89 -363q0 -292 -163 -467q-199 -217 -570 -217h-257zM621 779v-80h-341v-615h174q210 0 360 87q128 73 196 194q80 142 80 319q0 250 -144 406q-177 191 -492 191h-174v-502h341z" />
    <glyph glyph-name="Ntilde" unicode="&#xd1;" horiz-adv-x="1459" 
d="M563 1549l-66 15q29 128 132 128q44 0 132 -41q60 -28 102 -28q51 0 67 66l66 -15q-22 -127 -132 -127q-54 0 -128 37q-68 33 -105 33q-47 0 -68 -68zM1180 0l-913 1241v-1241h-90v1365h100l914 -1240v1240h90v-1365h-101z" />
    <glyph glyph-name="Ograve" unicode="&#xd2;" horiz-adv-x="1569" 
d="M664 1765l174 -240l-48 -28l-217 218zM784 1385q183 0 338 -93q162 -98 254 -259q93 -163 93 -351t-94 -351q-94 -166 -257 -260q-157 -91 -338 -91q-172 0 -329 91q-164 95 -257 260q-94 163 -94 362q0 183 93 340q100 167 255 259q158 93 336 93zM781 1301
q-255 0 -431 -198q-159 -177 -159 -431q0 -200 120 -363q95 -127 235 -191q116 -54 238 -54q152 0 288 79q144 84 223 223q83 146 83 315q0 280 -203 468q-166 152 -394 152z" />
    <glyph glyph-name="Oacute" unicode="&#xd3;" horiz-adv-x="1569" 
d="M781 1497l-49 28l174 240l92 -50zM784 1385q183 0 338 -93q162 -98 254 -259q93 -163 93 -351t-94 -351q-94 -166 -257 -260q-157 -91 -338 -91q-172 0 -329 91q-164 95 -257 260q-94 163 -94 362q0 183 93 340q100 167 255 259q158 93 336 93zM781 1301
q-255 0 -431 -198q-159 -177 -159 -431q0 -200 120 -363q95 -127 235 -191q116 -54 238 -54q152 0 288 79q144 84 223 223q83 146 83 315q0 280 -203 468q-166 152 -394 152z" />
    <glyph glyph-name="Ocircumflex" unicode="&#xd4;" horiz-adv-x="1569" 
d="M785 1679l-193 -182l-57 28l204 224h93l204 -224l-58 -28zM784 1385q183 0 338 -93q162 -98 254 -259q93 -163 93 -351t-94 -351q-94 -166 -257 -260q-157 -91 -338 -91q-172 0 -329 91q-164 95 -257 260q-94 163 -94 362q0 183 93 340q100 167 255 259q158 93 336 93z
M781 1301q-255 0 -431 -198q-159 -177 -159 -431q0 -200 120 -363q95 -127 235 -191q116 -54 238 -54q152 0 288 79q144 84 223 223q83 146 83 315q0 280 -203 468q-166 152 -394 152z" />
    <glyph glyph-name="Otilde" unicode="&#xd5;" horiz-adv-x="1569" 
d="M602 1549l-66 15q29 128 132 128q44 0 132 -41q60 -28 103 -28q49 0 66 66l66 -15q-22 -127 -132 -127q-54 0 -128 37q-67 33 -105 33q-47 0 -68 -68zM784 1385q183 0 338 -93q162 -98 254 -259q93 -163 93 -351t-94 -351q-94 -166 -257 -260q-157 -91 -338 -91
q-172 0 -329 91q-164 95 -257 260q-94 163 -94 362q0 183 93 340q100 167 255 259q158 93 336 93zM781 1301q-255 0 -431 -198q-159 -177 -159 -431q0 -200 120 -363q95 -127 235 -191q116 -54 238 -54q152 0 288 79q144 84 223 223q83 146 83 315q0 280 -203 468
q-166 152 -394 152z" />
    <glyph glyph-name="Odieresis" unicode="&#xd6;" horiz-adv-x="1569" 
d="M784 1385q183 0 338 -93q162 -98 254 -259q93 -163 93 -351t-94 -351q-94 -166 -257 -260q-157 -91 -338 -91q-172 0 -329 91q-164 95 -257 260q-94 163 -94 362q0 183 93 340q100 167 255 259q158 93 336 93zM781 1301q-255 0 -431 -198q-159 -177 -159 -431
q0 -200 120 -363q95 -127 235 -191q116 -54 238 -54q152 0 288 79q144 84 223 223q83 146 83 315q0 280 -203 468q-166 152 -394 152zM975 1688q27 0 47 -20t20 -48t-20 -48.5t-48 -20.5t-48.5 20.5t-20.5 48.5t20.5 48t49.5 20zM598 1688q28 0 48 -20t20 -48t-20 -48.5
t-49 -20.5q-27 0 -47.5 20.5t-20.5 47.5q0 29 20 49t49 20z" />
    <glyph glyph-name="multiply" unicode="&#xd7;" horiz-adv-x="1139" 
d="M280 296l-54 54l289 289l-289 289l54 54l289 -289l289 289l54 -54l-289 -289l289 -289l-54 -54l-289 288z" />
    <glyph glyph-name="Oslash" unicode="&#xd8;" horiz-adv-x="1584" 
d="M1250 1201l161 166l48 -47l-162 -167q56 -62 92 -130q87 -160 87 -340q0 -190 -94 -353q-95 -165 -257 -259q-157 -91 -334 -91q-258 0 -457 184l-162 -166l-48 47l162 167q-179 200 -179 469q0 189 93 352q94 164 255 259q159 93 339 93q251 0 456 -184zM347 274
l844 867q-172 160 -397 160q-157 0 -292 -78q-139 -79 -220 -222q-85 -148 -85 -322q0 -228 150 -405zM1237 1092l-843 -867q175 -161 397 -161q152 0 289 79q142 82 223 223q83 145 83 317q0 233 -149 409z" />
    <glyph glyph-name="Ugrave" unicode="&#xd9;" horiz-adv-x="1299" 
d="M542 1765l174 -240l-48 -28l-218 218zM177 1365h90v-849q0 -109 11 -170t37 -107q40 -70 124 -119q98 -56 210 -56q153 0 266 96q68 58 92 132t24 224v849h90v-892q0 -170 -56 -268q-56 -96 -161 -157q-119 -68 -255 -68q-192 0 -329 121q-79 68 -110 153q-33 84 -33 219
v892z" />
    <glyph glyph-name="Uacute" unicode="&#xda;" horiz-adv-x="1299" 
d="M631 1497l-49 28l174 240l92 -50zM177 1365h90v-849q0 -109 11 -170t37 -107q40 -70 124 -119q98 -56 210 -56q153 0 266 96q68 58 92 132t24 224v849h90v-892q0 -170 -56 -268q-56 -96 -161 -157q-119 -68 -255 -68q-192 0 -329 121q-79 68 -110 153q-33 84 -33 219v892
z" />
    <glyph glyph-name="Ucircumflex" unicode="&#xdb;" horiz-adv-x="1299" 
d="M649 1679l-193 -182l-57 28l204 224h93l204 -224l-58 -28zM177 1365h90v-849q0 -109 11 -170t37 -107q40 -70 124 -119q98 -56 210 -56q153 0 266 96q68 58 92 132t24 224v849h90v-892q0 -170 -56 -268q-56 -96 -161 -157q-119 -68 -255 -68q-192 0 -329 121
q-79 68 -110 153q-33 84 -33 219v892z" />
    <glyph glyph-name="Udieresis" unicode="&#xdc;" horiz-adv-x="1299" 
d="M177 1365h90v-849q0 -109 11 -170t37 -107q40 -70 124 -119q98 -56 210 -56q153 0 266 96q68 58 92 132t24 224v849h90v-892q0 -170 -56 -268q-56 -96 -161 -157q-119 -68 -255 -68q-192 0 -329 121q-79 68 -110 153q-33 84 -33 219v892zM839 1688q27 0 47 -20t20 -48
t-20 -48.5t-48 -20.5t-48.5 20.5t-20.5 48.5t20.5 48t49.5 20zM462 1688q28 0 48 -20t20 -48t-20 -48.5t-49 -20.5q-27 0 -47.5 20.5t-20.5 47.5q0 29 20 49t49 20z" />
    <glyph glyph-name="Yacute" unicode="&#xdd;" horiz-adv-x="990" 
d="M477 1497l-49 28l174 240l92 -50zM450 0v573l-436 792h97l384 -708l385 708h97l-437 -792v-573h-90z" />
    <glyph glyph-name="Thorn" unicode="&#xde;" horiz-adv-x="945" 
d="M177 0v1365h90v-218h167q185 0 277 -53q81 -47 124 -126q55 -97 55 -212q0 -163 -98 -275q-59 -66 -140 -93q-81 -28 -218 -28h-167v-360h-90zM453 1065h-186v-623h186q132 0 208 43q62 35 95 95q45 80 45 176q0 89 -36.5 159t-101.5 107q-76 43 -210 43z" />
    <glyph glyph-name="germandbls" unicode="&#xdf;" horiz-adv-x="1048" 
d="M228 0h-85v1032q0 210 167 308q78 45 171 45q171 0 268 -109q85 -94 85 -241q0 -101 -41 -183q-40 -80 -109 -112q97 -32 151 -86q108 -106 108 -272q0 -172 -119 -282q-107 -100 -304 -100h-87v81h93q167 0 254 98q75 85 75 205q0 140 -94 228q-79 75 -214 75h-3v77h3
q45 0 94 28q43 26 69 72q40 73 40 160q0 146 -85 221q-71 63 -175 63q-121 0 -195 -83q-67 -74 -67 -193v-1032z" />
    <glyph glyph-name="agrave" unicode="&#xe0;" horiz-adv-x="1130" 
d="M416 1355l174 -240l-49 -28l-217 218zM988 908v-908h-85v179q-67 -90 -130 -132q-106 -67 -233 -67q-200 0 -334 150q-121 134 -121 325q0 218 154 357q128 116 301 116q114 0 199.5 -47t163.5 -151v178h85zM539 849q-103 0 -189 -52q-81 -49 -125 -129q-52 -94 -52 -213
q0 -194 124 -303q104 -92 245 -92q162 0 267 116q97 106 97 282q0 192 -123 302q-101 89 -244 89z" />
    <glyph glyph-name="aacute" unicode="&#xe1;" horiz-adv-x="1130" 
d="M546 1087l-49 28l174 240l92 -50zM988 908v-908h-85v179q-67 -90 -130 -132q-106 -67 -233 -67q-200 0 -334 150q-121 134 -121 325q0 218 154 357q128 116 301 116q114 0 199.5 -47t163.5 -151v178h85zM539 849q-103 0 -189 -52q-81 -49 -125 -129q-52 -94 -52 -213
q0 -194 124 -303q104 -92 245 -92q162 0 267 116q97 106 97 282q0 192 -123 302q-101 89 -244 89z" />
    <glyph glyph-name="acircumflex" unicode="&#xe2;" horiz-adv-x="1130" 
d="M537 1269l-193 -182l-57 28l204 224h93l204 -224l-58 -28zM988 908v-908h-85v179q-67 -90 -130 -132q-106 -67 -233 -67q-200 0 -334 150q-121 134 -121 325q0 218 154 357q128 116 301 116q114 0 199.5 -47t163.5 -151v178h85zM539 849q-103 0 -189 -52
q-81 -49 -125 -129q-52 -94 -52 -213q0 -194 124 -303q104 -92 245 -92q162 0 267 116q97 106 97 282q0 192 -123 302q-101 89 -244 89z" />
    <glyph glyph-name="atilde" unicode="&#xe3;" horiz-adv-x="1130" 
d="M354 1139l-66 16q28 127 132 127q44 0 132 -41q60 -28 103 -28q50 0 66 67l66 -16q-22 -127 -132 -127q-54 0 -128 37q-67 33 -105 33q-47 0 -68 -68zM988 908v-908h-85v179q-67 -90 -130 -132q-106 -67 -233 -67q-200 0 -334 150q-121 134 -121 325q0 218 154 357
q128 116 301 116q114 0 199.5 -47t163.5 -151v178h85zM539 849q-103 0 -189 -52q-81 -49 -125 -129q-52 -94 -52 -213q0 -194 124 -303q104 -92 245 -92q162 0 267 116q97 106 97 282q0 192 -123 302q-101 89 -244 89z" />
    <glyph glyph-name="adieresis" unicode="&#xe4;" horiz-adv-x="1130" 
d="M988 908v-908h-85v179q-67 -90 -130 -132q-106 -67 -233 -67q-200 0 -334 150q-121 134 -121 325q0 218 154 357q128 116 301 116q114 0 199.5 -47t163.5 -151v178h85zM539 849q-103 0 -189 -52q-81 -49 -125 -129q-52 -94 -52 -213q0 -194 124 -303q104 -92 245 -92
q162 0 267 116q97 106 97 282q0 192 -123 302q-101 89 -244 89zM367 1274q28 0 48 -20t20 -48q0 -29 -20 -49t-49 -20q-27 0 -47.5 20.5t-20.5 47.5q0 29 20.5 49t48.5 20zM744 1274q27 0 47 -20t20 -48q0 -29 -20 -49t-48 -20t-48.5 20.5t-20.5 48.5t20.5 48t49.5 20z" />
    <glyph glyph-name="aring" unicode="&#xe5;" horiz-adv-x="1130" 
d="M560 1363q65 0 112 -44q46 -45 46 -109q0 -66 -46 -109q-46 -45 -112 -45q-70 0 -116 52q-40 43 -40 104t47 106t109 45zM560 1316q-43 0 -74 -31.5t-31 -76.5q0 -41 32 -73t74 -32q44 0 75 31t31 76q0 44 -31 75t-76 31zM988 908v-908h-85v179q-67 -90 -130 -132
q-106 -67 -233 -67q-200 0 -334 150q-121 134 -121 325q0 218 154 357q128 116 301 116q114 0 199.5 -47t163.5 -151v178h85zM539 849q-103 0 -189 -52q-81 -49 -125 -129q-52 -94 -52 -213q0 -194 124 -303q104 -92 245 -92q162 0 267 116q97 106 97 282q0 192 -123 302
q-101 89 -244 89z" />
    <glyph glyph-name="ae" unicode="&#xe6;" horiz-adv-x="1725" 
d="M1533 223l78 -33q-147 -210 -380 -210q-122 0 -222 59t-155 164q-67 -223 -374 -223q-159 0 -263 61q-132 77 -132 233q0 163 131 240q88 52 232 52h339q-8 110 -49 171q-76 112 -273 112q-153 0 -289 -96l-39 57q166 118 348 118q179 0 283 -97q51 -47 78 -138
q37 76 98 130q118 105 274 105q181 0 303 -137q120 -133 120 -351q0 -10 -1 -22h-764q14 -135 75 -219q102 -139 279 -139q191 0 303 163zM789 284v209h-311q-86 0 -155 -22.5t-103 -61.5q-50 -56 -50 -137q0 -110 96 -166q83 -47 214 -47q85 0 154 22.5t104 61.5
q51 57 51 141zM876 491h679q-16 138 -79 228q-43 61 -111.5 95.5t-145.5 34.5q-167 0 -268 -137q-60 -84 -75 -221z" />
    <glyph glyph-name="ccedilla" unicode="&#xe7;" horiz-adv-x="929" 
d="M481 -129l83 -35l-172 -219l-55 28zM863 796l-58 -59q-113 111 -260 111q-170 0 -276 -118q-96 -105 -96 -276q0 -192 122 -302q104 -92 253 -92q158 0 265 119l58 -59q-137 -140 -323 -140q-208 0 -342 150q-121 134 -121 325q0 219 154 358q127 115 309 115
q93 0 165 -30q71 -30 150 -102z" />
    <glyph glyph-name="egrave" unicode="&#xe8;" horiz-adv-x="1022" 
d="M402 1355l174 -240l-49 -28l-217 218zM938 418h-764q8 -115 64 -204q47 -73 122 -114q74 -40 168 -40q192 0 303 163l78 -33q-143 -210 -380 -210q-197 0 -323 142q-121 136 -121 332q0 222 152 365q118 109 278 109q182 0 303 -136q56 -63 88 -156.5t32 -195.5v-22z
M174 491h678q-16 141 -78 228q-43 61 -111.5 95.5t-146.5 34.5q-120 0 -211 -76q-121 -99 -131 -282z" />
    <glyph glyph-name="eacute" unicode="&#xe9;" horiz-adv-x="1022" 
d="M498 1087l-49 28l174 240l92 -50zM938 418h-764q8 -115 64 -204q47 -73 122 -114q74 -40 168 -40q192 0 303 163l78 -33q-143 -210 -380 -210q-197 0 -323 142q-121 136 -121 332q0 222 152 365q118 109 278 109q182 0 303 -136q56 -63 88 -156.5t32 -195.5v-22zM174 491
h678q-16 141 -78 228q-43 61 -111.5 95.5t-146.5 34.5q-120 0 -211 -76q-121 -99 -131 -282z" />
    <glyph glyph-name="ecircumflex" unicode="&#xea;" horiz-adv-x="1022" 
d="M512 1269l-193 -182l-58 28l205 224h92l204 -224l-57 -28zM938 418h-764q8 -115 64 -204q47 -73 122 -114q74 -40 168 -40q192 0 303 163l78 -33q-143 -210 -380 -210q-197 0 -323 142q-121 136 -121 332q0 222 152 365q118 109 278 109q182 0 303 -136q56 -63 88 -156.5
t32 -195.5v-22zM174 491h678q-16 141 -78 228q-43 61 -111.5 95.5t-146.5 34.5q-120 0 -211 -76q-121 -99 -131 -282z" />
    <glyph glyph-name="edieresis" unicode="&#xeb;" horiz-adv-x="1022" 
d="M938 418h-764q8 -115 64 -204q47 -73 122 -114q74 -40 168 -40q192 0 303 163l78 -33q-143 -210 -380 -210q-197 0 -323 142q-121 136 -121 332q0 222 152 365q118 109 278 109q182 0 303 -136q56 -63 88 -156.5t32 -195.5v-22zM174 491h678q-16 141 -78 228
q-43 61 -111.5 95.5t-146.5 34.5q-120 0 -211 -76q-121 -99 -131 -282zM324 1274q28 0 48 -20t20 -48t-20 -48.5t-49 -20.5q-27 0 -47.5 20.5t-20.5 47.5q0 29 20 49t49 20zM702 1274q27 0 47 -20t20 -48t-20 -48.5t-48 -20.5t-48.5 20.5t-20.5 47.5q0 29 20.5 49t49.5 20z
" />
    <glyph glyph-name="igrave" unicode="&#xec;" horiz-adv-x="372" 
d="M53 1355l174 -240l-49 -28l-217 218zM143 908h85v-908h-85v908z" />
    <glyph glyph-name="iacute" unicode="&#xed;" horiz-adv-x="372" 
d="M193 1087l-49 28l174 240l92 -50zM143 908h85v-908h-85v908z" />
    <glyph glyph-name="icircumflex" unicode="&#xee;" horiz-adv-x="372" 
d="M186 1269l-194 -182l-57 28l204 224h93l204 -224l-57 -28zM143 908h85v-908h-85v908z" />
    <glyph glyph-name="idieresis" unicode="&#xef;" horiz-adv-x="372" 
d="M143 908h85v-908h-85v908zM49 1274q28 0 48 -20t20 -48q0 -29 -20 -49t-49 -20q-27 0 -47.5 20.5t-20.5 47.5q0 29 20 49t49 20zM324 1274q27 0 47 -20t20 -48t-20 -48.5t-48 -20.5t-48.5 20.5t-20.5 47.5q0 29 20.5 49t49.5 20z" />
    <glyph glyph-name="eth" unicode="&#xf0;" horiz-adv-x="1088" 
d="M585 1299l-175 -91l-55 49l166 86q-128 84 -289 125l36 55q104 -28 168 -55q65 -28 161 -86l183 93l50 -48l-173 -91q117 -105 203 -251q69 -118 106 -266q38 -154 38 -309q0 -182 -72 -306q-61 -106 -164 -165t-224 -59q-204 0 -338 150q-121 136 -121 325
q0 218 154 357q128 116 302 116q157 0 275 -95q35 -29 82 -91q-73 363 -313 557zM541 848q-162 0 -271 -117q-97 -106 -97 -283q0 -87 33 -166t91 -131q103 -91 246 -91q167 0 274 117q97 106 97 278q0 193 -124 302q-101 91 -249 91z" />
    <glyph glyph-name="ntilde" unicode="&#xf1;" horiz-adv-x="1044" 
d="M349 1139l-65 16q27 127 132 127q44 0 132 -41q60 -28 102 -28q50 0 66 67l66 -16q-22 -127 -131 -127q-54 0 -128 37q-67 33 -105 33q-48 0 -69 -68zM143 908h85v-148q105 168 316 168q166 0 266 -109q49 -53 70.5 -129t21.5 -196v-494h-85v476q0 164 -45 246
q-33 58 -89 88q-67 36 -151 36q-83 0 -153 -36.5t-104 -96.5q-47 -85 -47 -259v-454h-85v908z" />
    <glyph glyph-name="ograve" unicode="&#xf2;" horiz-adv-x="1086" 
d="M423 1355l174 -240l-49 -28l-217 218zM550 928q198 0 331 -150q121 -134 121 -323q0 -220 -154 -359q-128 -116 -304 -116q-204 0 -338 150q-121 136 -121 325q0 183 111 313q136 160 354 160zM537 848q-157 0 -267 -117q-97 -106 -97 -276q0 -195 124 -304
q103 -91 246 -91q167 0 274 117q97 106 97 282q0 189 -124 298q-101 91 -253 91z" />
    <glyph glyph-name="oacute" unicode="&#xf3;" horiz-adv-x="1086" 
d="M539 1087l-49 28l174 240l92 -50zM550 928q198 0 331 -150q121 -134 121 -323q0 -220 -154 -359q-128 -116 -304 -116q-204 0 -338 150q-121 136 -121 325q0 183 111 313q136 160 354 160zM537 848q-157 0 -267 -117q-97 -106 -97 -276q0 -195 124 -304q103 -91 246 -91
q167 0 274 117q97 106 97 282q0 189 -124 298q-101 91 -253 91z" />
    <glyph glyph-name="ocircumflex" unicode="&#xf4;" horiz-adv-x="1086" 
d="M794 1115l-57 -28l-194 182l-193 -182l-57 28l204 224h93zM550 928q198 0 331 -150q121 -134 121 -323q0 -220 -154 -359q-128 -116 -305 -116q-203 0 -337 150q-121 134 -121 325q0 183 111 313q138 160 354 160zM540 848q-102 0 -190 -52q-81 -48 -125 -128
q-52 -95 -52 -213q0 -195 124 -304q103 -91 247 -91q166 0 273 117q97 106 97 281q0 190 -124 299q-103 91 -250 91z" />
    <glyph glyph-name="otilde" unicode="&#xf5;" horiz-adv-x="1086" 
d="M360 1139l-65 16q27 127 132 127q44 0 132 -41q60 -28 102 -28q51 0 66 67l66 -16q-22 -127 -132 -127q-54 0 -127 37q-68 33 -105 33q-48 0 -69 -68zM550 928q198 0 331 -150q121 -134 121 -323q0 -220 -154 -359q-128 -116 -304 -116q-204 0 -338 150
q-121 136 -121 325q0 183 111 313q136 160 354 160zM537 848q-157 0 -267 -117q-97 -106 -97 -276q0 -195 124 -304q103 -91 246 -91q167 0 274 117q97 106 97 282q0 189 -124 298q-101 91 -253 91z" />
    <glyph glyph-name="odieresis" unicode="&#xf6;" horiz-adv-x="1086" 
d="M550 928q198 0 331 -150q121 -134 121 -323q0 -220 -154 -359q-128 -116 -304 -116q-204 0 -338 150q-121 136 -121 325q0 183 111 313q136 160 354 160zM537 848q-157 0 -267 -117q-97 -106 -97 -276q0 -195 124 -304q103 -91 246 -91q167 0 274 117q97 106 97 282
q0 189 -124 298q-101 91 -253 91zM733 1274q27 0 47 -20t20 -48q0 -29 -20 -49t-48 -20t-48.5 20.5t-20.5 48.5t20.5 48t49.5 20zM356 1274q28 0 48 -20t20 -48t-20 -48.5t-49 -20.5q-27 0 -47.5 20.5t-20.5 47.5q0 29 20.5 49t48.5 20z" />
    <glyph glyph-name="divide" unicode="&#xf7;" horiz-adv-x="1139" 
d="M157 677h825v-76h-825v76zM570 362q32 0 54 -22.5t22 -53.5q0 -32 -22.5 -54.5t-53.5 -22.5q-32 0 -54 22.5t-22 55.5q0 30 22.5 52.5t53.5 22.5zM570 1069q31 0 53.5 -22.5t22.5 -53.5q0 -32 -22.5 -54.5t-54.5 -22.5q-31 0 -53 23t-22 55q0 30 22.5 52.5t53.5 22.5z
" />
    <glyph glyph-name="oslash" unicode="&#xf8;" horiz-adv-x="1114" 
d="M1015 867l-106 -106q106 -131 106 -305q0 -221 -154 -360q-128 -116 -306 -116q-177 0 -308 122l-104 -104l-45 43l106 106q-106 130 -106 307q0 219 154 358q128 116 306 116q179 0 309 -121l103 103zM852 705l-549 -548q104 -97 251 -97q170 0 276 117q97 106 97 280
q0 147 -75 248zM262 204l549 547q-107 97 -252 97q-169 0 -277 -117q-96 -107 -96 -283q0 -135 76 -244z" />
    <glyph glyph-name="ugrave" unicode="&#xf9;" horiz-adv-x="1044" 
d="M405 1355l174 -240l-49 -28l-216 218zM902 0h-85v148q-107 -168 -316 -168q-166 0 -266 109q-49 53 -70.5 129t-21.5 196v494h85v-476q0 -164 45 -246q32 -57 90 -88q67 -36 150 -36t153 36.5t104 97.5q47 83 47 258v454h85v-908z" />
    <glyph glyph-name="uacute" unicode="&#xfa;" horiz-adv-x="1044" 
d="M508 1087l-49 28l174 240l92 -50zM902 0h-85v148q-107 -168 -316 -168q-166 0 -266 109q-49 53 -70.5 129t-21.5 196v494h85v-476q0 -164 45 -246q32 -57 90 -88q67 -36 150 -36t153 36.5t104 97.5q47 83 47 258v454h85v-908z" />
    <glyph glyph-name="ucircumflex" unicode="&#xfb;" horiz-adv-x="1044" 
d="M523 1269l-193 -182l-58 28l204 224h93l204 -224l-57 -28zM902 0h-85v148q-107 -168 -316 -168q-166 0 -266 109q-49 53 -70.5 129t-21.5 196v494h85v-476q0 -164 45 -246q32 -57 90 -88q67 -36 150 -36t153 36.5t104 97.5q47 83 47 258v454h85v-908z" />
    <glyph glyph-name="udieresis" unicode="&#xfc;" horiz-adv-x="1044" 
d="M902 0h-85v148q-107 -168 -316 -168q-166 0 -266 109q-49 53 -70.5 129t-21.5 196v494h85v-476q0 -164 45 -246q32 -57 90 -88q67 -36 150 -36t153 36.5t104 97.5q47 83 47 258v454h85v-908zM336 1274q27 0 47 -20t20 -48t-20 -48.5t-49 -20.5q-28 0 -48 20.5t-20 48.5
t20.5 48t49.5 20zM713 1274q27 0 47 -20t20 -48t-20 -48.5t-48 -20.5t-48.5 20.5t-20.5 47.5q0 29 20.5 49t49.5 20z" />
    <glyph glyph-name="yacute" unicode="&#xfd;" horiz-adv-x="877" 
d="M429 1087l-49 28l174 240l92 -50zM173 -478l215 501l-373 885h94l324 -782l335 782h94l-602 -1386h-87z" />
    <glyph glyph-name="thorn" unicode="&#xfe;" horiz-adv-x="1133" 
d="M230 -478h-85v1843h85v-635q136 198 362 198q202 0 336 -150q120 -134 120 -324q0 -219 -154 -358q-128 -116 -302 -116q-223 0 -362 199v-657zM586 849q-156 0 -261 -115q-97 -106 -97 -279q0 -197 123 -306q101 -89 240 -89q164 0 272 118q97 106 97 275t-93 275
q-106 121 -281 121z" />
    <glyph glyph-name="ydieresis" unicode="&#xff;" horiz-adv-x="877" 
d="M173 -478l215 501l-373 885h94l324 -782l335 782h94l-602 -1386h-87zM251 1274q28 0 48 -20t20 -48t-20 -48.5t-49 -20.5q-28 0 -48 20.5t-20 48.5t20.5 48t48.5 20zM628 1274q27 0 47 -20t20 -48q0 -29 -20 -49t-48 -20t-48.5 20.5t-20.5 48.5t20.5 48t49.5 20z" />
    <glyph glyph-name="Amacron" unicode="&#x100;" horiz-adv-x="1248" 
d="M370 1580v78h507v-78h-507zM279 404l-159 -404h-93l544 1365h105l544 -1365h-94l-159 404h-688zM622 1277l-311 -790h623z" />
    <glyph glyph-name="amacron" unicode="&#x101;" horiz-adv-x="1130" 
d="M308 1170v78h507v-78h-507zM988 908v-908h-85v179q-67 -90 -130 -132q-106 -67 -233 -67q-200 0 -334 150q-121 134 -121 325q0 218 154 357q128 116 301 116q114 0 199.5 -47t163.5 -151v178h85zM539 849q-103 0 -189 -52q-81 -49 -125 -129q-52 -94 -52 -213
q0 -194 124 -303q104 -92 245 -92q162 0 267 116q97 106 97 282q0 192 -123 302q-101 89 -244 89z" />
    <glyph glyph-name="Abreve" unicode="&#x102;" horiz-adv-x="1248" 
d="M381 1710l74 6q7 -68 52.5 -109.5t112.5 -41.5t112 40t58 111l73 -6q-19 -103 -83 -161t-159 -58q-99 0 -164 59t-76 160zM279 404l-159 -404h-93l544 1365h105l544 -1365h-94l-159 404h-688zM622 1277l-311 -790h623z" />
    <glyph glyph-name="abreve" unicode="&#x103;" horiz-adv-x="1130" 
d="M298 1300l73 6q8 -68 53.5 -109.5t112.5 -41.5q66 0 111 40t58 111l74 -6q-19 -103 -83 -161t-159 -58q-99 0 -164 59.5t-76 159.5zM988 908v-908h-85v179q-67 -90 -130 -132q-106 -67 -233 -67q-200 0 -334 150q-121 134 -121 325q0 218 154 357q128 116 301 116
q114 0 199.5 -47t163.5 -151v178h85zM539 849q-103 0 -189 -52q-81 -49 -125 -129q-52 -94 -52 -213q0 -194 124 -303q104 -92 245 -92q162 0 267 116q97 106 97 282q0 192 -123 302q-101 89 -244 89z" />
    <glyph glyph-name="Aogonek" unicode="&#x104;" horiz-adv-x="1248" 
d="M1134 0h-8l-159 404h-688l-159 -404h-93l544 1365h105l544 -1365q-70 -79 -70 -139q0 -73 89 -73q27 0 60 13l25 -62q-54 -19 -99 -19q-66 0 -110 38q-44 39 -44 96q0 70 63 146zM622 1277l-311 -790h623z" />
    <glyph glyph-name="aogonek" unicode="&#x105;" horiz-adv-x="1130" 
d="M903 908h85v-908q-70 -82 -70 -139q0 -73 88 -73q28 0 61 13l25 -62q-54 -19 -99 -19q-66 0 -110 38t-44 96q0 69 64 146v179q-67 -90 -130 -132q-106 -67 -233 -67q-200 0 -334 150q-121 134 -121 325q0 218 154 357q128 116 301 116q114 0 199.5 -47t163.5 -151v178z
M539 849q-103 0 -189 -52q-81 -49 -125 -129q-52 -94 -52 -213q0 -194 124 -303q104 -92 245 -92q162 0 267 116q97 106 97 282q0 192 -123 302q-101 89 -244 89z" />
    <glyph glyph-name="Cacute" unicode="&#x106;" horiz-adv-x="1343" 
d="M780 1497l-49 28l174 240l92 -50zM1253 1189l-61 -61q-171 173 -403 173q-268 0 -440 -196q-158 -179 -158 -424q0 -173 84 -318q79 -139 217 -219q140 -80 300 -80q227 0 409 178l60 -62q-205 -200 -467 -200q-188 0 -348 92q-160 93 -253 258q-93 164 -93 351
q0 193 96 359q93 160 248 252q160 93 347 93q260 0 462 -196z" />
    <glyph glyph-name="cacute" unicode="&#x107;" horiz-adv-x="929" 
d="M506 1087l-49 28l174 240l92 -50zM863 796l-58 -59q-113 111 -260 111q-170 0 -276 -118q-96 -105 -96 -276q0 -192 122 -302q104 -92 253 -92q158 0 265 119l58 -59q-137 -140 -323 -140q-208 0 -342 150q-121 134 -121 325q0 219 154 358q127 115 309 115q93 0 165 -30
q71 -30 150 -102z" />
    <glyph glyph-name="Ccircumflex" unicode="&#x108;" horiz-adv-x="1343" 
d="M750 1679l-193 -182l-58 28l205 224h92l204 -224l-57 -28zM1253 1189l-61 -61q-171 173 -403 173q-268 0 -440 -196q-158 -179 -158 -424q0 -173 84 -318q79 -139 217 -219q140 -80 300 -80q227 0 409 178l60 -62q-205 -200 -467 -200q-188 0 -348 92q-160 93 -253 258
q-93 164 -93 351q0 193 96 359q93 160 248 252q160 93 347 93q260 0 462 -196z" />
    <glyph glyph-name="ccircumflex" unicode="&#x109;" horiz-adv-x="929" 
d="M514 1269l-193 -182l-57 28l204 224h93l204 -224l-58 -28zM863 796l-58 -59q-113 111 -260 111q-170 0 -276 -118q-96 -105 -96 -276q0 -192 122 -302q104 -92 253 -92q158 0 265 119l58 -59q-137 -140 -323 -140q-208 0 -342 150q-121 134 -121 325q0 219 154 358
q127 115 309 115q93 0 165 -30q71 -30 150 -102z" />
    <glyph glyph-name="Cdotaccent" unicode="&#x10a;" horiz-adv-x="1343" 
d="M1253 1189l-61 -61q-171 173 -403 173q-268 0 -440 -196q-158 -179 -158 -424q0 -173 84 -318q79 -139 217 -219q140 -80 300 -80q227 0 409 178l60 -62q-205 -200 -467 -200q-188 0 -348 92q-160 93 -253 258q-93 164 -93 351q0 193 96 359q93 160 248 252
q160 93 347 93q260 0 462 -196zM768 1688q28 0 48 -20t20 -48t-20 -48.5t-49 -20.5q-27 0 -47.5 20.5t-20.5 48.5t20.5 48t48.5 20z" />
    <glyph glyph-name="cdotaccent" unicode="&#x10b;" horiz-adv-x="929" 
d="M863 796l-58 -59q-113 111 -260 111q-170 0 -276 -118q-96 -105 -96 -276q0 -192 122 -302q104 -92 253 -92q158 0 265 119l58 -59q-137 -140 -323 -140q-208 0 -342 150q-121 134 -121 325q0 219 154 358q127 115 309 115q93 0 165 -30q71 -30 150 -102zM522 1274
q28 0 48 -20.5t20 -47.5q0 -28 -20.5 -48.5t-48.5 -20.5q-27 0 -47.5 20.5t-20.5 47.5q0 29 20 49t49 20z" />
    <glyph glyph-name="Ccaron" unicode="&#x10c;" horiz-adv-x="1343" 
d="M499 1726l58 28l193 -182l193 182l57 -28l-204 -224h-92zM1253 1189l-61 -61q-171 173 -403 173q-268 0 -440 -196q-158 -179 -158 -424q0 -173 84 -318q79 -139 217 -219q140 -80 300 -80q227 0 409 178l60 -62q-205 -200 -467 -200q-188 0 -348 92q-160 93 -253 258
q-93 164 -93 351q0 193 96 359q93 160 248 252q160 93 347 93q260 0 462 -196z" />
    <glyph glyph-name="ccaron" unicode="&#x10d;" horiz-adv-x="929" 
d="M264 1316l57 29l193 -182l193 182l58 -29l-204 -223h-93zM863 796l-58 -59q-113 111 -260 111q-170 0 -276 -118q-96 -105 -96 -276q0 -192 122 -302q104 -92 253 -92q158 0 265 119l58 -59q-137 -140 -323 -140q-208 0 -342 150q-121 134 -121 325q0 219 154 358
q127 115 309 115q93 0 165 -30q71 -30 150 -102z" />
    <glyph glyph-name="Dcaron" unicode="&#x10e;" horiz-adv-x="1267" 
d="M343 1726l57 28l193 -182l194 182l57 -28l-204 -224h-93zM177 0v1365h257q248 0 424 -101q147 -85 221 -217q88 -157 88 -363q0 -292 -163 -467q-199 -217 -570 -217h-257zM441 1281h-174v-1197h174q210 0 360 87q128 73 196 194q80 142 80 319q0 250 -144 406
q-177 191 -492 191z" />
    <glyph glyph-name="dcaron" unicode="&#x10f;" horiz-adv-x="1295" 
d="M1125 1116l80 273l88 -27l-113 -263zM988 1365v-1365h-85v179q-138 -199 -362 -199q-201 0 -335 150q-121 134 -121 325q0 218 154 357q128 116 302 116q223 0 362 -198v635h85zM536 849q-158 0 -266 -117q-97 -106 -97 -277q0 -194 124 -303q104 -92 245 -92
q161 0 266 115q97 106 97 287q0 188 -123 298q-100 89 -246 89z" />
    <glyph glyph-name="Dcroat" unicode="&#x110;" horiz-adv-x="1279" 
d="M190 0v699h-118v80h118v586h257q248 0 424 -101q147 -85 220 -217q89 -158 89 -363q0 -292 -163 -467q-199 -217 -570 -217h-257zM621 779v-80h-341v-615h174q210 0 360 87q128 73 196 194q80 142 80 319q0 250 -144 406q-177 191 -492 191h-174v-502h341z" />
    <glyph glyph-name="dslash" unicode="&#x111;" horiz-adv-x="1132" 
d="M988 1092v-1092h-85v179q-138 -199 -362 -199q-201 0 -335 150q-121 134 -121 325q0 218 154 357q128 116 302 116q223 0 362 -198v362h-253v79h253v194h85v-194h128v-79h-128zM536 849q-157 0 -266 -117q-97 -106 -97 -277q0 -194 124 -303q104 -92 245 -92
q163 0 266 115q97 106 97 287q0 188 -123 298q-100 89 -246 89z" />
    <glyph glyph-name="Emacron" unicode="&#x112;" horiz-adv-x="961" 
d="M266 1580v78h507v-78h-507zM840 1365v-82h-573v-549h509v-83h-509v-567h594v-84h-684v1365h663z" />
    <glyph glyph-name="emacron" unicode="&#x113;" horiz-adv-x="1022" 
d="M258 1170v78h507v-78h-507zM938 418h-764q8 -115 64 -204q47 -73 122 -114q74 -40 168 -40q192 0 303 163l78 -33q-143 -210 -380 -210q-197 0 -323 142q-121 136 -121 332q0 222 152 365q118 109 278 109q182 0 303 -136q56 -63 88 -156.5t32 -195.5v-22zM174 491h678
q-16 141 -78 228q-43 61 -111.5 95.5t-146.5 34.5q-120 0 -211 -76q-121 -99 -131 -282z" />
    <glyph glyph-name="Ebreve" unicode="&#x114;" horiz-adv-x="961" 
d="M277 1710l74 6q7 -68 52.5 -109.5t112.5 -41.5q66 0 111 40t59 111l73 -6q-19 -103 -83 -161t-159 -58q-99 0 -164 59t-76 160zM840 1365v-82h-573v-549h509v-83h-509v-567h594v-84h-684v1365h663z" />
    <glyph glyph-name="ebreve" unicode="&#x115;" horiz-adv-x="1022" 
d="M277 1300l73 6q8 -68 53.5 -109.5t111.5 -41.5q67 0 112 40t58 111l74 -6q-19 -102 -83.5 -160.5t-158.5 -58.5q-99 0 -164 59.5t-76 159.5zM938 418h-764q8 -115 64 -204q47 -73 122 -114q74 -40 168 -40q192 0 303 163l78 -33q-143 -210 -380 -210q-197 0 -323 142
q-121 136 -121 332q0 222 152 365q118 109 278 109q182 0 303 -136q56 -63 88 -156.5t32 -195.5v-22zM174 491h678q-16 141 -78 228q-43 61 -111.5 95.5t-146.5 34.5q-120 0 -211 -76q-121 -99 -131 -282z" />
    <glyph glyph-name="Edotaccent" unicode="&#x116;" horiz-adv-x="961" 
d="M840 1365v-82h-573v-549h509v-83h-509v-567h594v-84h-684v1365h663zM520 1688q28 0 48 -20t20 -48t-20 -48.5t-49 -20.5q-27 0 -47.5 20.5t-20.5 48.5t20.5 48t48.5 20z" />
    <glyph glyph-name="edotaccent" unicode="&#x117;" horiz-adv-x="1022" 
d="M938 418h-764q8 -115 64 -204q47 -73 122 -114q74 -40 168 -40q192 0 303 163l78 -33q-143 -210 -380 -210q-197 0 -323 142q-121 136 -121 332q0 222 152 365q118 109 278 109q182 0 303 -136q56 -63 88 -156.5t32 -195.5v-22zM174 491h678q-16 141 -78 228
q-43 61 -111.5 95.5t-146.5 34.5q-120 0 -211 -76q-121 -99 -131 -282zM512 1274q28 0 48 -20t20 -48q0 -29 -20 -49t-49 -20q-27 0 -47.5 20.5t-20.5 47.5q0 29 20.5 49t48.5 20z" />
    <glyph glyph-name="Eogonek" unicode="&#x118;" horiz-adv-x="961" 
d="M861 84v-84q-70 -82 -70 -139q0 -73 88 -73q28 0 61 13l25 -62q-54 -19 -99 -19q-66 0 -110 38q-44 39 -44 96q0 70 63 146h-598v1365h663v-82h-573v-549h509v-83h-509v-567h594z" />
    <glyph glyph-name="eogonek" unicode="&#x119;" horiz-adv-x="1022" 
d="M558 -18q-54 -70 -54 -120q0 -74 88 -74q25 0 61 14l25 -62q-57 -20 -99 -20q-66 0 -110 38t-44 95q0 63 50 131q-108 11 -193 71q-84 57 -137 156q-60 111 -60 244q0 221 152 364q118 109 278 109q182 0 303 -136q56 -63 88 -156.5t32 -195.5v-22h-764q8 -115 64 -204
q47 -73 122 -114q74 -40 168 -40q192 0 303 164l78 -34q-130 -190 -351 -208zM174 491h678q-16 141 -78 228q-43 61 -111.5 95.5t-146.5 34.5q-120 0 -211 -76q-121 -99 -131 -282z" />
    <glyph glyph-name="Ecaron" unicode="&#x11a;" horiz-adv-x="961" 
d="M269 1726l57 28l193 -182l193 182l58 -28l-204 -224h-93zM840 1365v-82h-573v-549h509v-83h-509v-567h594v-84h-684v1365h663z" />
    <glyph glyph-name="ecaron" unicode="&#x11b;" horiz-adv-x="1022" 
d="M261 1316l58 29l193 -182l193 182l57 -29l-204 -223h-92zM938 418h-764q8 -115 64 -204q47 -73 122 -114q74 -40 168 -40q192 0 303 163l78 -33q-143 -210 -380 -210q-197 0 -323 142q-121 136 -121 332q0 222 152 365q118 109 278 109q182 0 303 -136q56 -63 88 -156.5
t32 -195.5v-22zM174 491h678q-16 141 -78 228q-43 61 -111.5 95.5t-146.5 34.5q-120 0 -211 -76q-121 -99 -131 -282z" />
    <glyph glyph-name="Gcircumflex" unicode="&#x11c;" horiz-adv-x="1492" 
d="M758 1679l-194 -182l-57 28l204 224h93l204 -224l-57 -28zM1299 591h-419v83h510v-46q0 -217 -89 -372q-76 -129 -199 -200q-131 -76 -304 -76q-190 0 -350 92q-161 93 -255 259q-93 163 -93 351q0 193 97 359q92 159 247 251q160 93 348 93q261 0 462 -195l-61 -61
q-169 172 -403 172q-269 0 -441 -196q-158 -179 -158 -423q0 -172 83 -317q82 -142 220 -221q139 -80 300 -80q196 0 331 114q86 73 127.5 171t46.5 242z" />
    <glyph glyph-name="gcircumflex" unicode="&#x11d;" horiz-adv-x="1130" 
d="M787 1115l-57 -28l-193 182l-194 -182l-57 28l204 224h93zM903 908h85v-925q0 -237 -143 -365q-130 -115 -324 -115q-120 0 -213.5 43t-176.5 137l57 58q52 -60 103 -95q97 -63 227 -63q187 0 291 116q94 104 94 284v30v166q-138 -199 -362 -199q-203 0 -336 150
q-120 135 -120 325q0 218 154 357q128 116 302 116q223 0 362 -198v178zM539 849q-103 0 -189 -52q-81 -49 -125 -129q-52 -94 -52 -213q0 -194 124 -303q104 -92 245 -92q162 0 267 116q97 106 97 282q0 192 -123 302q-101 89 -244 89z" />
    <glyph glyph-name="Gbreve" unicode="&#x11e;" horiz-adv-x="1492" 
d="M552 1710l74 6q8 -68 53.5 -109.5t111.5 -41.5q67 0 112 40t58 111l73 -6q-19 -103 -83 -161t-158 -58q-100 0 -164.5 59t-76.5 160zM1299 591h-419v83h510v-46q0 -217 -89 -372q-76 -129 -199 -200q-131 -76 -304 -76q-190 0 -350 92q-161 93 -255 259q-93 163 -93 351
q0 193 97 359q92 159 247 251q160 93 348 93q261 0 462 -195l-61 -61q-169 172 -403 172q-269 0 -441 -196q-158 -179 -158 -423q0 -172 83 -317q82 -142 220 -221q139 -80 300 -80q196 0 331 114q86 73 127.5 171t46.5 242z" />
    <glyph glyph-name="gbreve" unicode="&#x11f;" horiz-adv-x="1130" 
d="M298 1300l73 6q8 -68 53.5 -109.5t112.5 -41.5q66 0 111 40t58 111l74 -6q-17 -86 -64 -138q-70 -81 -178 -81q-99 0 -164 59t-76 160zM903 908h85v-925q0 -237 -143 -365q-130 -115 -324 -115q-120 0 -213.5 43t-176.5 137l57 58q52 -60 103 -95q97 -63 227 -63
q187 0 291 116q94 104 94 284v30v166q-138 -199 -362 -199q-203 0 -336 150q-120 135 -120 325q0 218 154 357q128 116 302 116q223 0 362 -198v178zM539 849q-103 0 -189 -52q-81 -49 -125 -129q-52 -94 -52 -213q0 -194 124 -303q104 -92 245 -92q162 0 267 116
q97 106 97 282q0 192 -123 302q-101 89 -244 89z" />
    <glyph glyph-name="Gdotaccent" unicode="&#x120;" horiz-adv-x="1492" 
d="M1299 591h-419v83h510v-46q0 -217 -89 -372q-76 -129 -199 -200q-131 -76 -304 -76q-190 0 -350 92q-161 93 -255 259q-93 163 -93 351q0 193 97 359q92 159 247 251q160 93 348 93q261 0 462 -195l-61 -61q-169 172 -403 172q-269 0 -441 -196q-158 -179 -158 -423
q0 -172 83 -317q82 -142 220 -221q139 -80 300 -80q196 0 331 114q86 73 127.5 171t46.5 242zM793 1688q28 0 48 -20t20 -48t-20.5 -48.5t-48.5 -20.5q-27 0 -47.5 20.5t-20.5 47.5q0 29 20 49t49 20z" />
    <glyph glyph-name="gdotaccent" unicode="&#x121;" horiz-adv-x="1130" 
d="M903 908h85v-925q0 -237 -143 -365q-130 -115 -324 -115q-120 0 -213.5 43t-176.5 137l57 58q52 -60 103 -95q97 -63 227 -63q187 0 291 116q94 104 94 284v30v166q-138 -199 -362 -199q-203 0 -336 150q-120 135 -120 325q0 218 154 357q128 116 302 116q223 0 362 -198
v178zM539 849q-103 0 -189 -52q-81 -49 -125 -129q-52 -94 -52 -213q0 -194 124 -303q104 -92 245 -92q162 0 267 116q97 106 97 282q0 192 -123 302q-101 89 -244 89zM538 1274q28 0 48 -20.5t20 -47.5q0 -29 -20.5 -49t-48.5 -20q-27 0 -47.5 20.5t-20.5 47.5q0 29 20 49
t49 20z" />
    <glyph glyph-name="Gcommaaccent" unicode="&#x122;" horiz-adv-x="1492" 
d="M659 -401l80 273l88 -27l-113 -263zM1299 591h-419v83h510v-46q0 -217 -89 -372q-76 -129 -199 -200q-131 -76 -304 -76q-190 0 -350 92q-161 93 -255 259q-93 163 -93 351q0 193 97 359q92 159 247 251q160 93 348 93q261 0 462 -195l-61 -61q-169 172 -403 172
q-269 0 -441 -196q-158 -179 -158 -423q0 -172 83 -317q82 -142 220 -221q139 -80 300 -80q196 0 331 114q86 73 127.5 171t46.5 242z" />
    <glyph glyph-name="gcommaaccent" unicode="&#x123;" horiz-adv-x="1130" 
d="M676 1340l-80 -273l-88 26l113 264zM903 908h85v-925q0 -237 -143 -365q-130 -115 -324 -115q-120 0 -213.5 43t-176.5 137l57 58q52 -60 103 -95q97 -63 227 -63q187 0 291 116q94 104 94 284v30v166q-138 -199 -362 -199q-203 0 -336 150q-120 135 -120 325
q0 218 154 357q128 116 302 116q223 0 362 -198v178zM539 849q-103 0 -189 -52q-81 -49 -125 -129q-52 -94 -52 -213q0 -194 124 -303q104 -92 245 -92q162 0 267 116q97 106 97 282q0 192 -123 302q-101 89 -244 89z" />
    <glyph glyph-name="Hcircumflex" unicode="&#x124;" horiz-adv-x="1331" 
d="M665 1679l-193 -182l-58 28l205 224h92l204 -224l-57 -28zM267 1365v-631h796v631h90v-1365h-90v651h-796v-651h-90v1365h90z" />
    <glyph glyph-name="hcircumflex" unicode="&#x125;" horiz-adv-x="1044" 
d="M529 1679l-193 -182l-57 28l204 224h93l204 -224l-58 -28zM228 1365v-605q105 168 316 168q166 0 266 -109q49 -53 70.5 -129t21.5 -196v-494h-85v476q0 164 -45 246q-33 58 -89 88q-67 36 -151 36q-83 0 -153 -36.5t-104 -96.5q-47 -85 -47 -259v-454h-85v1365h85z" />
    <glyph glyph-name="Hbar" unicode="&#x126;" horiz-adv-x="1348" 
d="M1162 1171h128v-79h-128v-1092h-90v651h-796v-651h-90v1092h-128v79h128v194h90v-194h796v194h90v-194zM1072 734v358h-796v-358h796z" />
    <glyph glyph-name="hbar" unicode="&#x127;" horiz-adv-x="1046" 
d="M16 1171h128v194h85v-194h254v-79h-254v-332q103 168 317 168q164 0 265 -108q49 -54 70.5 -130t21.5 -196v-494h-85v476q0 164 -45 246q-33 58 -89 88q-68 36 -150 36q-84 0 -154 -36.5t-104 -96.5q-47 -85 -47 -259v-454h-85v1092h-128v79z" />
    <glyph glyph-name="Itilde" unicode="&#x128;" horiz-adv-x="445" 
d="M40 1549l-66 15q29 128 132 128q44 0 132 -41q60 -28 102 -28q50 0 67 66l65 -15q-21 -127 -131 -127q-54 0 -128 37q-67 33 -105 33q-47 0 -68 -68zM178 1365h90v-1365h-90v1365z" />
    <glyph glyph-name="itilde" unicode="&#x129;" horiz-adv-x="372" 
d="M3 1139l-66 16q28 127 132 127q44 0 132 -41q60 -28 102 -28q51 0 67 67l65 -16q-21 -127 -131 -127q-54 0 -128 37q-68 33 -105 33q-47 0 -68 -68zM143 908h85v-908h-85v908z" />
    <glyph glyph-name="Imacron" unicode="&#x12a;" horiz-adv-x="445" 
d="M-31 1580v78h507v-78h-507zM178 1365h90v-1365h-90v1365z" />
    <glyph glyph-name="imacron" unicode="&#x12b;" horiz-adv-x="372" 
d="M-68 1170v78h507v-78h-507zM143 908h85v-908h-85v908z" />
    <glyph glyph-name="Ibreve" unicode="&#x12c;" horiz-adv-x="445" 
d="M177 1365h90v-1365h-90v1365zM-19 1710l74 6q7 -68 52.5 -109.5t112.5 -41.5q66 0 111.5 40t58.5 111l73 -6q-19 -103 -83 -161t-159 -58q-99 0 -164 59t-76 160z" />
    <glyph glyph-name="ibreve" unicode="&#x12d;" horiz-adv-x="372" 
d="M143 908h85v-908h-85v908zM-55 1300l74 6q7 -68 52.5 -109.5t112.5 -41.5q66 0 111.5 40t58.5 111l73 -6q-17 -86 -63 -138q-70 -81 -179 -81q-99 0 -164 59t-76 160z" />
    <glyph glyph-name="Iogonek" unicode="&#x12e;" horiz-adv-x="445" 
d="M347 -199l25 -62q-54 -19 -99 -19q-67 0 -111 38t-44 96q0 70 64 146h-4v1365h90v-1365q-71 -83 -71 -139q0 -73 89 -73q28 0 61 13z" />
    <glyph glyph-name="iogonek" unicode="&#x12f;" horiz-adv-x="372" 
d="M307 -199l25 -62q-54 -19 -99 -19q-66 0 -110 38q-44 39 -44 96q0 70 64 146v908h85v-908q-70 -82 -70 -139q0 -73 88 -73q28 0 61 13zM187 1275q28 0 48 -20.5t20 -48.5q0 -29 -20.5 -49.5t-48.5 -20.5t-48.5 21t-20.5 49q0 29 20.5 49t49.5 20z" />
    <glyph glyph-name="Idot" unicode="&#x130;" horiz-adv-x="445" 
d="M177 1365h90v-1365h-90v1365zM223 1688q28 0 48 -20t20 -48t-20 -48.5t-49 -20.5q-27 0 -47.5 20.5t-20.5 47.5q0 29 20 49t49 20z" />
    <glyph glyph-name="dotlessi" unicode="&#x131;" horiz-adv-x="370" 
d="M143 908h85v-908h-85v908z" />
    <glyph glyph-name="IJ" unicode="&#x132;" horiz-adv-x="1223" 
d="M177 1365h90v-1365h-90v1365zM955 1365h90v-964q0 -180 -59 -283q-35 -60 -98 -97q-73 -41 -162 -41q-76 0 -138 28q-65 30 -141 95l53 64q66 -57 115.5 -80t107.5 -23q232 0 232 337v964z" />
    <glyph glyph-name="ij" unicode="&#x133;" horiz-adv-x="756" 
d="M143 908h85v-908h-85v908zM187 1275q28 0 48 -20.5t20 -48.5q0 -29 -20.5 -49.5t-48.5 -20.5t-48.5 20.5t-20.5 48.5q0 29 20.5 49.5t49.5 20.5zM354 -478v79q34 -8 53 -8q63 0 91.5 46.5t28.5 148.5v1120h85v-1120q0 -172 -70 -233q-50 -44 -119 -44q-30 0 -69 11z
M571 1275q28 0 48 -20.5t20 -48.5q0 -29 -20.5 -49.5t-48.5 -20.5t-48.5 20.5t-20.5 49.5t20.5 49t49.5 20z" />
    <glyph glyph-name="Jcircumflex" unicode="&#x134;" horiz-adv-x="796" 
d="M492 1679l-193 -182l-58 28l205 224h93l204 -224l-58 -28zM528 1365h90v-964q0 -180 -59 -283q-35 -60 -98 -97q-73 -41 -162 -41q-76 0 -138 28q-65 30 -141 95l53 64q66 -57 115.5 -80t107.5 -23q232 0 232 337v964z" />
    <glyph glyph-name="jcircumflex" unicode="&#x135;" horiz-adv-x="391" 
d="M171 1269l-194 -182l-57 28l204 224h93l204 -224l-57 -28zM-11 -478v79q34 -8 53 -8q63 0 91.5 46.5t28.5 148.5v1120h85v-1120q0 -172 -70 -233q-50 -44 -118 -44q-29 0 -70 11z" />
    <glyph glyph-name="Kcommaaccent" unicode="&#x136;" horiz-adv-x="1130" 
d="M509 -401l81 273l87 -27l-113 -263zM1075 1365l-502 -556l530 -809h-105l-485 743l-246 -273v-470h-90v1365h90v-780l701 780h107z" />
    <glyph glyph-name="kcommaaccent" unicode="&#x137;" horiz-adv-x="924" 
d="M371 -401l81 273l88 -27l-114 -263zM737 908h109l-359 -360l421 -548h-106l-373 491l-201 -202v-289h-85v1365h85v-970z" />
    <glyph glyph-name="kgreenlandic" unicode="&#x138;" horiz-adv-x="924" 
d="M737 908h109l-359 -360l421 -548h-106l-373 491l-201 -202v-289h-85v908h85v-513z" />
    <glyph glyph-name="Lacute" unicode="&#x139;" horiz-adv-x="850" 
d="M234 1497l-49 28l174 240l92 -50zM177 0v1365h90v-1281h552v-84h-642z" />
    <glyph glyph-name="lacute" unicode="&#x13a;" horiz-adv-x="375" 
d="M195 1521l-49 28l174 240l92 -50zM230 1365v-1365h-85v1365h85z" />
    <glyph glyph-name="Lcommaaccent" unicode="&#x13b;" horiz-adv-x="858" 
d="M412 -401l81 273l87 -27l-113 -263zM177 0v1365h90v-1281h552v-84h-642z" />
    <glyph glyph-name="lcommaaccent" unicode="&#x13c;" horiz-adv-x="375" 
d="M66 -401l81 273l87 -27l-113 -263zM229 1365v-1365h-85v1365h85z" />
    <glyph glyph-name="Lcaron" unicode="&#x13d;" horiz-adv-x="858" 
d="M526 1116l81 273l87 -27l-113 -263zM177 0v1365h90v-1281h552v-84h-642z" />
    <glyph glyph-name="lcaron" unicode="&#x13e;" horiz-adv-x="537" 
d="M367 1116l80 273l88 -27l-114 -263zM230 1365v-1365h-85v1365h85z" />
    <glyph glyph-name="Ldot" unicode="&#x13f;" horiz-adv-x="858" 
d="M177 0v1365h90v-1281h552v-84h-642zM633 751q27 0 47 -20t20 -48t-20 -48.5t-48 -20.5q-27 0 -47.5 20.5t-20.5 48.5t20 48t49 20z" />
    <glyph glyph-name="ldot" unicode="&#x140;" horiz-adv-x="606" 
d="M145 1365h85v-1365h-85v1365zM489 751q27 0 47 -20t20 -48t-20 -48.5t-48 -20.5t-48 20.5t-20 48.5t20 48t49 20z" />
    <glyph glyph-name="Lslash" unicode="&#x141;" horiz-adv-x="894" 
d="M214 0v633l-142 -95v88l142 95v644h90v-597l239 159v-88l-239 -159v-596h552v-84h-642z" />
    <glyph glyph-name="lslash" unicode="&#x142;" horiz-adv-x="488" 
d="M424 883v-90l-137 -92v-701h-85v643l-137 -93v90l137 93v632h85v-575z" />
    <glyph glyph-name="Nacute" unicode="&#x143;" horiz-adv-x="1459" 
d="M745 1497l-49 28l174 240l92 -50zM1180 0l-913 1241v-1241h-90v1365h100l914 -1240v1240h90v-1365h-101z" />
    <glyph glyph-name="nacute" unicode="&#x144;" horiz-adv-x="1044" 
d="M542 1087l-49 28l174 240l92 -50zM143 908h85v-148q105 168 316 168q166 0 266 -109q49 -53 70.5 -129t21.5 -196v-494h-85v476q0 164 -45 246q-33 58 -89 88q-67 36 -151 36q-83 0 -153 -36.5t-104 -96.5q-47 -85 -47 -259v-454h-85v908z" />
    <glyph glyph-name="Ncommaaccent" unicode="&#x145;" horiz-adv-x="1459" 
d="M643 -401l81 273l87 -27l-113 -263zM1180 0l-913 1241v-1241h-90v1365h100l914 -1240v1240h90v-1365h-101z" />
    <glyph glyph-name="ncommaaccent" unicode="&#x146;" horiz-adv-x="1044" 
d="M437 -401l81 273l87 -27l-113 -263zM143 908h85v-148q105 168 316 168q166 0 266 -109q49 -53 70.5 -129t21.5 -196v-494h-85v476q0 164 -45 246q-33 58 -89 88q-67 36 -151 36q-83 0 -153 -36.5t-104 -96.5q-47 -85 -47 -259v-454h-85v908z" />
    <glyph glyph-name="Ncaron" unicode="&#x147;" horiz-adv-x="1459" 
d="M512 1726l58 28l193 -182l193 182l57 -28l-204 -224h-92zM1180 0l-913 1241v-1241h-90v1365h100l914 -1240v1240h90v-1365h-101z" />
    <glyph glyph-name="ncaron" unicode="&#x148;" horiz-adv-x="1044" 
d="M282 1316l57 29l194 -182l193 182l57 -29l-204 -223h-93zM143 908h85v-148q105 168 316 168q166 0 266 -109q49 -53 70.5 -129t21.5 -196v-494h-85v476q0 164 -45 246q-33 58 -89 88q-67 36 -151 36q-83 0 -153 -36.5t-104 -96.5q-47 -85 -47 -259v-454h-85v908z" />
    <glyph glyph-name="napostrophe" unicode="&#x149;" horiz-adv-x="1189" 
d="M64 882l-50 20l152 422l82 -30zM287 908h85v-148q105 168 316 168q166 0 266 -109q49 -53 70.5 -129t21.5 -196v-494h-85v476q0 164 -45 246q-33 58 -89 88q-68 36 -151 36t-153 -36.5t-104 -96.5q-47 -85 -47 -259v-454h-85v908z" />
    <glyph glyph-name="Eng" unicode="&#x14a;" horiz-adv-x="1459" 
d="M1191 1365h90v-1389q0 -173 -70 -234q-52 -44 -118 -44q-32 0 -71 12v78q32 -8 53 -8q63 0 92 46.5t29 149.5v25h-16l-913 1240v-1241h-90v1365h100l914 -1240v1240z" />
    <glyph glyph-name="eng" unicode="&#x14b;" horiz-adv-x="1044" 
d="M228 454v-454h-85v908h85v-148q105 168 317 168q165 0 265 -109q49 -53 70.5 -129t21.5 -196v-518q0 -173 -70 -234q-50 -44 -117 -44q-32 0 -71 12v78q32 -8 53 -8q63 0 91.5 46.5t28.5 149.5v500q0 164 -45 246q-31 57 -89 88q-67 36 -150 36q-84 0 -154 -36.5
t-104 -96.5q-47 -85 -47 -259z" />
    <glyph glyph-name="Omacron" unicode="&#x14c;" horiz-adv-x="1569" 
d="M532 1580v78h507v-78h-507zM784 1385q183 0 338 -93q162 -98 254 -259q93 -163 93 -351t-94 -351q-94 -166 -257 -260q-157 -91 -338 -91q-172 0 -329 91q-164 95 -257 260q-94 163 -94 362q0 183 93 340q100 167 255 259q158 93 336 93zM781 1301q-255 0 -431 -198
q-159 -177 -159 -432q0 -160 83 -305q81 -141 223 -223q136 -79 287 -79q152 0 288 79q144 84 223 223q83 146 83 315q0 280 -203 468q-166 152 -394 152z" />
    <glyph glyph-name="omacron" unicode="&#x14d;" horiz-adv-x="1086" 
d="M290 1170v78h507v-78h-507zM550 928q198 0 331 -150q121 -134 121 -323q0 -220 -154 -359q-128 -116 -304 -116q-204 0 -338 150q-121 136 -121 325q0 183 111 313q136 160 354 160zM537 848q-157 0 -267 -117q-97 -106 -97 -276q0 -195 124 -304q103 -91 246 -91
q167 0 274 117q97 106 97 282q0 189 -124 298q-101 91 -253 91z" />
    <glyph glyph-name="Obreve" unicode="&#x14e;" horiz-adv-x="1569" 
d="M543 1710l74 6q7 -68 52.5 -109.5t112.5 -41.5q66 0 111 40t59 111l73 -6q-19 -103 -83 -161t-159 -58q-99 0 -164 59t-76 160zM784 1385q183 0 338 -93q162 -98 254 -259q93 -163 93 -351t-94 -351q-94 -166 -257 -260q-157 -91 -338 -91q-172 0 -329 91
q-164 95 -257 260q-94 163 -94 362q0 183 93 340q100 167 255 259q158 93 336 93zM781 1301q-255 0 -431 -198q-159 -177 -159 -432q0 -160 83 -305q81 -141 223 -223q136 -79 287 -79q152 0 288 79q144 84 223 223q83 146 83 315q0 280 -203 468q-166 152 -394 152z" />
    <glyph glyph-name="obreve" unicode="&#x14f;" horiz-adv-x="1086" 
d="M301 1300l74 6q7 -68 52.5 -109.5t112.5 -41.5t112 40t58 111l73 -6q-19 -103 -83 -161t-158 -58q-99 0 -164.5 59.5t-76.5 159.5zM550 928q198 0 331 -150q121 -134 121 -323q0 -220 -154 -359q-128 -116 -304 -116q-204 0 -338 150q-121 136 -121 325q0 183 111 313
q136 160 354 160zM537 848q-157 0 -267 -117q-97 -106 -97 -276q0 -195 124 -304q103 -91 246 -91q167 0 274 117q97 106 97 282q0 189 -124 298q-101 91 -253 91z" />
    <glyph glyph-name="Ohungarumlaut" unicode="&#x150;" horiz-adv-x="1569" 
d="M885 1524l174 240l86 -48l-217 -218zM598 1524l174 240l86 -48l-217 -218zM784 1385q183 0 338 -93q162 -98 254 -259q93 -163 93 -351t-94 -351q-94 -166 -257 -260q-157 -91 -338 -91q-172 0 -329 91q-164 95 -257 260q-94 163 -94 362q0 183 93 340q100 167 255 259
q158 93 336 93zM781 1301q-255 0 -431 -198q-159 -177 -159 -431q0 -200 120 -363q95 -127 235 -191q116 -54 238 -54q152 0 288 79q144 84 223 223q83 146 83 315q0 280 -203 468q-166 152 -394 152z" />
    <glyph glyph-name="ohungarumlaut" unicode="&#x151;" horiz-adv-x="1086" 
d="M377 1115l174 239l86 -48l-217 -218zM663 1115l175 239l86 -48l-217 -218zM550 928q198 0 331 -150q121 -134 121 -323q0 -220 -154 -359q-128 -116 -304 -116q-204 0 -338 150q-121 136 -121 325q0 183 111 313q136 160 354 160zM537 848q-157 0 -267 -117
q-97 -106 -97 -276q0 -195 124 -304q103 -91 246 -91q167 0 274 117q97 106 97 282q0 189 -124 298q-101 91 -253 91z" />
    <glyph glyph-name="OE" unicode="&#x152;" horiz-adv-x="2163" 
d="M2063 0h-684v348q-60 -115 -157 -199q-190 -169 -437 -169q-177 0 -334 91q-162 93 -257 260q-94 163 -94 351t93 351q94 164 255 259q157 93 337 93q184 0 344 -98q159 -100 250 -271v349h663v-82h-573v-549h509v-83h-509v-567h594v-84zM780 1301q-254 0 -431 -198
q-159 -179 -159 -431q0 -200 121 -363q94 -127 235 -191q116 -54 238 -54q153 0 289 79q142 82 223 223q83 146 83 315q0 280 -203 468q-167 152 -396 152z" />
    <glyph glyph-name="oe" unicode="&#x153;" horiz-adv-x="1851" 
d="M957 658q40 91 106 156q119 114 281 114q181 0 303 -137q57 -64 88.5 -156.5t31.5 -194.5v-22h-764q8 -115 64 -204q45 -72 122 -114q74 -40 167 -40q193 0 304 163l77 -33q-141 -210 -380 -210q-135 0 -241 72t-159 200q-41 -88 -105 -150q-128 -122 -308 -122
q-204 0 -338 150q-121 134 -121 324q0 219 154 358q128 116 305 116q136 0 246 -72t167 -198zM537 848q-158 0 -267 -118q-97 -104 -97 -275q0 -195 124 -304q103 -91 246 -91q167 0 274 117q97 106 97 281q0 190 -123 299q-103 91 -254 91zM1003 491h679q-18 142 -78 227
q-43 61 -112 96t-147 35q-120 0 -211 -76q-121 -101 -131 -282z" />
    <glyph glyph-name="Racute" unicode="&#x154;" horiz-adv-x="1063" 
d="M505 1497l-48 28l174 240l91 -50zM177 0v1365h257q202 0 305 -58q82 -46 132 -133q55 -94 55 -208q0 -130 -70 -227q-71 -99 -191 -133l333 -606h-101l-319 587q-70 -9 -144 -9h-167v-578h-90zM267 1282v-622h186q158 0 244 49q64 36 99 98q41 71 41 160q0 87 -38.5 158
t-106.5 109q-86 48 -239 48h-186z" />
    <glyph glyph-name="racute" unicode="&#x155;" horiz-adv-x="583" 
d="M277 1087l-49 28l174 240l91 -50zM143 0v908h85v-148q33 53 65 80q38 33 106 53t130 15v-77h-22q-76 0 -138.5 -33.5t-94.5 -90.5q-26 -48 -36 -105q-10 -56 -10 -159v-443h-85z" />
    <glyph glyph-name="Rcommaaccent" unicode="&#x156;" horiz-adv-x="1063" 
d="M472 -401l81 273l87 -27l-113 -263zM177 0v1365h257q202 0 305 -58q82 -46 132 -133q55 -94 55 -208q0 -130 -70 -227q-71 -99 -191 -133l333 -606h-101l-319 587q-70 -9 -144 -9h-167v-578h-90zM267 1282v-622h186q158 0 244 49q64 36 99 98q41 71 41 160
q0 87 -38.5 158t-106.5 109q-86 48 -239 48h-186z" />
    <glyph glyph-name="rcommaaccent" unicode="&#x157;" horiz-adv-x="583" 
d="M73 -401l81 273l87 -27l-113 -263zM143 0v908h85v-148q33 53 65 80q38 33 106 53t130 15v-77h-22q-76 0 -138.5 -33.5t-94.5 -90.5q-26 -48 -36 -105q-10 -54 -10 -159v-443h-85z" />
    <glyph glyph-name="Rcaron" unicode="&#x158;" horiz-adv-x="1063" 
d="M270 1726l57 28l193 -182l193 182l58 -28l-204 -224h-93zM177 0v1365h257q202 0 305 -58q82 -46 132 -133q55 -94 55 -208q0 -130 -70 -227q-71 -99 -191 -133l333 -606h-101l-319 587q-70 -9 -144 -9h-167v-578h-90zM267 1282v-622h186q158 0 244 49q64 36 99 98
q41 71 41 160q0 87 -38.5 158t-106.5 109q-86 48 -239 48h-186z" />
    <glyph glyph-name="rcaron" unicode="&#x159;" horiz-adv-x="562" 
d="M85 1316l57 29l194 -182l193 182l57 -29l-204 -223h-93zM143 0v908h85v-148q33 53 65 80q38 33 106 53t130 15v-77h-22q-76 0 -138.5 -33.5t-94.5 -90.5q-26 -48 -36 -105q-10 -54 -10 -159v-443h-85z" />
    <glyph glyph-name="Sacute" unicode="&#x15a;" horiz-adv-x="1015" 
d="M520 1497l-49 28l174 240l92 -50zM855 1206l-71 -46q-110 143 -265 143q-137 0 -219 -93q-69 -78 -69 -176q0 -166 227 -255l138 -54q159 -62 233 -146t74 -202q0 -176 -130 -293q-116 -104 -284 -104q-146 0 -248 80t-145 227l87 25q28 -94 82 -153q92 -95 228 -95
q146 0 241 104q79 88 79 207q0 95 -61 159t-206 122l-133 52q-163 64 -226 163q-44 73 -44 163q0 156 112 255q110 96 269 96q206 0 331 -179z" />
    <glyph glyph-name="sacute" unicode="&#x15b;" horiz-adv-x="747" 
d="M362 1087l-49 28l174 240l92 -50zM624 794l-70 -37q-39 51 -79.5 73t-97.5 22q-82 0 -134 -46q-53 -47 -53 -116q0 -66 46 -109q27 -26 137 -68l93 -37q104 -41 150 -93.5t46 -128.5q0 -119 -88 -198q-82 -76 -209 -76q-101 0 -171.5 48.5t-119.5 152.5l75 32
q34 -62 67 -95q62 -60 155 -60q101 0 157 65q47 55 47 122q0 65 -46 108q-18 18 -44 31q-27 13 -98 41l-104 41q-174 69 -174 217q0 107 78 175q80 70 194 70q151 0 243 -134z" />
    <glyph glyph-name="Scircumflex" unicode="&#x15c;" horiz-adv-x="1015" 
d="M497 1679l-193 -182l-58 28l205 224h92l204 -224l-57 -28zM855 1206l-71 -46q-110 143 -265 143q-137 0 -219 -93q-69 -78 -69 -176q0 -166 227 -255l138 -54q159 -62 233 -146t74 -202q0 -176 -130 -293q-116 -104 -284 -104q-146 0 -248 80t-145 227l87 25
q28 -94 82 -153q92 -95 228 -95q146 0 241 104q79 88 79 207q0 95 -61 159t-206 122l-133 52q-163 64 -226 163q-44 73 -44 163q0 156 112 255q110 96 269 96q206 0 331 -179z" />
    <glyph glyph-name="scircumflex" unicode="&#x15d;" horiz-adv-x="747" 
d="M617 1115l-58 -28l-193 182l-193 -182l-57 28l204 224h93zM624 794l-70 -37q-39 51 -79.5 73t-97.5 22q-82 0 -134 -46q-53 -47 -53 -116q0 -66 46 -109q27 -26 137 -68l93 -37q104 -41 150 -93.5t46 -128.5q0 -119 -88 -198q-82 -76 -209 -76q-101 0 -171.5 48.5
t-119.5 152.5l75 32q34 -62 67 -95q62 -60 155 -60q101 0 157 65q47 55 47 122q0 65 -46 108q-18 18 -44 31q-27 13 -98 41l-104 41q-174 69 -174 217q0 107 78 175q80 70 194 70q151 0 243 -134z" />
    <glyph glyph-name="Scedilla" unicode="&#x15e;" horiz-adv-x="1015" 
d="M526 -129l83 -35l-173 -219l-55 28zM855 1206l-71 -46q-110 143 -265 143q-137 0 -219 -93q-69 -78 -69 -176q0 -166 227 -255l138 -54q159 -62 233 -146t74 -202q0 -176 -130 -293q-116 -104 -284 -104q-146 0 -248 80t-145 227l87 25q28 -94 82 -153q92 -95 228 -95
q146 0 241 104q79 88 79 207q0 95 -61 159t-206 122l-133 52q-163 64 -226 163q-44 73 -44 163q0 156 112 255q110 96 269 96q206 0 331 -179z" />
    <glyph glyph-name="scedilla" unicode="&#x15f;" horiz-adv-x="747" 
d="M378 -129l83 -35l-173 -219l-55 28zM624 794l-70 -37q-39 51 -79.5 73t-97.5 22q-82 0 -134 -46q-53 -47 -53 -116q0 -66 46 -109q27 -26 137 -68l93 -37q104 -41 150 -93.5t46 -128.5q0 -119 -88 -198q-82 -76 -209 -76q-101 0 -171.5 48.5t-119.5 152.5l75 32
q34 -62 67 -95q62 -60 155 -60q101 0 157 65q47 55 47 122q0 65 -46 108q-18 18 -44 31q-27 13 -98 41l-104 41q-174 69 -174 217q0 107 78 175q80 70 194 70q151 0 243 -134z" />
    <glyph glyph-name="Scaron" unicode="&#x160;" horiz-adv-x="1015" 
d="M246 1726l58 28l193 -182l193 182l57 -28l-204 -224h-92zM855 1206l-71 -46q-110 143 -265 143q-137 0 -219 -93q-69 -78 -69 -176q0 -166 227 -255l138 -54q159 -62 233 -146t74 -202q0 -176 -130 -293q-116 -104 -284 -104q-146 0 -248 80t-145 227l87 25
q28 -94 82 -153q92 -95 228 -95q146 0 241 104q79 88 79 207q0 95 -61 159t-206 122l-133 52q-163 64 -226 163q-44 73 -44 163q0 156 112 255q110 96 269 96q206 0 331 -179z" />
    <glyph glyph-name="scaron" unicode="&#x161;" horiz-adv-x="747" 
d="M116 1316l57 29l193 -182l193 182l58 -29l-204 -223h-93zM624 794l-70 -37q-39 51 -79.5 73t-97.5 22q-82 0 -134 -46q-53 -47 -53 -116q0 -66 46 -109q27 -26 137 -68l93 -37q104 -41 150 -93.5t46 -128.5q0 -119 -88 -198q-82 -76 -209 -76q-101 0 -171.5 48.5
t-119.5 152.5l75 32q34 -62 67 -95q62 -60 155 -60q101 0 157 65q47 55 47 122q0 65 -46 108q-18 18 -44 31q-27 13 -98 41l-104 41q-174 69 -174 217q0 107 78 175q80 70 194 70q151 0 243 -134z" />
    <glyph glyph-name="Tcommaaccent" unicode="&#x162;" horiz-adv-x="881" 
d="M323 -401l80 273l88 -27l-114 -263zM853 1282h-368v-1282h-90v1282h-368v83h826v-83z" />
    <glyph glyph-name="tcommaaccent" unicode="&#x163;" horiz-adv-x="487" 
d="M156 -401l81 273l87 -27l-113 -263zM167 266v564h-109v78h109v239l85 34v-273h160v-78h-160v-564q0 -102 28.5 -148.5t91.5 -46.5q25 0 54 7v-78q-41 -11 -70 -11q-80 0 -132 57q-57 63 -57 220z" />
    <glyph glyph-name="Tcaron" unicode="&#x164;" horiz-adv-x="881" 
d="M190 1726l57 28l193 -182l193 182l58 -28l-204 -224h-93zM853 1282h-368v-1282h-90v1282h-368v83h826v-83z" />
    <glyph glyph-name="tcaron" unicode="&#x165;" horiz-adv-x="583" 
d="M412 1116l81 273l87 -27l-113 -263zM167 266v564h-109v78h109v230l85 34v-264h160v-78h-160v-564q0 -102 28.5 -148.5t91.5 -46.5q25 0 54 7v-78q-41 -11 -70 -11q-80 0 -132 57q-57 63 -57 220z" />
    <glyph glyph-name="Tbar" unicode="&#x166;" horiz-adv-x="881" 
d="M485 1282v-374h200v-78h-200v-830h-90v830h-200v78h200v374h-368v83h826v-83h-368z" />
    <glyph glyph-name="tbar" unicode="&#x167;" horiz-adv-x="487" 
d="M167 908v230l85 34v-264h160v-76h-160v-211h160v-76h-160v-279q0 -102 28.5 -148.5t91.5 -46.5q25 0 54 7v-78q-41 -11 -70 -11q-80 0 -132 57q-57 63 -57 220v279h-109v76h109v211h-109v76h109z" />
    <glyph glyph-name="Utilde" unicode="&#x168;" horiz-adv-x="1299" 
d="M466 1549l-66 15q29 128 132 128q44 0 132 -41q60 -28 103 -28q49 0 66 66l66 -15q-22 -127 -132 -127q-54 0 -128 37q-67 33 -105 33q-47 0 -68 -68zM177 1365h90v-849q0 -109 11 -170t37 -107q40 -70 124 -119q98 -56 210 -56q153 0 266 96q68 58 92 132t24 224v849h90
v-892q0 -170 -56 -268q-56 -96 -161 -157q-119 -68 -255 -68q-192 0 -329 121q-79 68 -110 153q-33 84 -33 219v892z" />
    <glyph glyph-name="utilde" unicode="&#x169;" horiz-adv-x="1044" 
d="M339 1139l-65 16q27 127 132 127q44 0 132 -41q60 -28 102 -28q50 0 66 67l66 -16q-22 -127 -131 -127q-54 0 -128 37q-67 33 -105 33q-48 0 -69 -68zM902 0h-85v148q-107 -168 -316 -168q-166 0 -266 109q-49 53 -70.5 129t-21.5 196v494h85v-476q0 -164 45 -246
q32 -57 90 -88q67 -36 150 -36t153 36.5t104 97.5q47 83 47 258v454h85v-908z" />
    <glyph glyph-name="Umacron" unicode="&#x16a;" horiz-adv-x="1299" 
d="M396 1580v78h507v-78h-507zM177 1365h90v-849q0 -109 11 -170t37 -107q40 -70 124 -119q98 -56 210 -56q153 0 266 96q68 58 92 132t24 224v849h90v-892q0 -170 -56 -268q-56 -96 -161 -157q-119 -68 -255 -68q-192 0 -329 121q-79 68 -110 153q-33 84 -33 219v892z" />
    <glyph glyph-name="umacron" unicode="&#x16b;" horiz-adv-x="1044" 
d="M269 1170v78h507v-78h-507zM902 0h-85v148q-107 -168 -316 -168q-166 0 -266 109q-49 53 -70.5 129t-21.5 196v494h85v-476q0 -164 45 -246q32 -57 90 -88q67 -36 150 -36t153 36.5t104 97.5q47 83 47 258v454h85v-908z" />
    <glyph glyph-name="Ubreve" unicode="&#x16c;" horiz-adv-x="1299" 
d="M407 1710l74 6q7 -68 52.5 -109.5t112.5 -41.5q66 0 111.5 40t58.5 111l73 -6q-19 -103 -83 -161t-159 -58q-99 0 -164 59t-76 160zM177 1365h90v-849q0 -109 11 -170t37 -107q40 -70 124 -119q98 -56 210 -56q153 0 266 96q68 58 92 132t24 224v849h90v-892
q0 -170 -56 -268q-56 -96 -161 -157q-119 -68 -255 -68q-192 0 -329 121q-79 68 -110 153q-33 84 -33 219v892z" />
    <glyph glyph-name="ubreve" unicode="&#x16d;" horiz-adv-x="1044" 
d="M280 1300l74 6q8 -68 53 -109.5t112 -41.5t112 40t58 111l73 -6q-15 -86 -63 -138q-71 -81 -178 -81q-100 0 -164.5 59t-76.5 160zM902 0h-85v148q-107 -168 -316 -168q-166 0 -266 109q-49 53 -70.5 129t-21.5 196v494h85v-476q0 -164 45 -246q32 -57 90 -88
q67 -36 150 -36t153 36.5t104 97.5q47 83 47 258v454h85v-908z" />
    <glyph glyph-name="Uring" unicode="&#x16e;" horiz-adv-x="1299" 
d="M177 1365h90v-849q0 -109 11 -170t37 -107q40 -70 124 -119q98 -56 210 -56q153 0 266 96q68 58 92 132t24 224v849h90v-892q0 -170 -56 -268q-56 -96 -161 -157q-119 -68 -255 -68q-192 0 -329 121q-79 68 -110 153q-33 84 -33 219v892zM648 1772q65 0 112 -44
q46 -45 46 -109q0 -65 -46 -108q-46 -45 -112 -45q-70 0 -116 51q-40 44 -40 104q0 61 47 106q46 45 109 45zM648 1725q-44 0 -74.5 -31t-30.5 -76q0 -43 31.5 -74t74.5 -31q44 0 75 31t31 75q0 45 -31 75.5t-76 30.5z" />
    <glyph glyph-name="uring" unicode="&#x16f;" horiz-adv-x="1044" 
d="M522 1363q65 0 112 -44q46 -45 46 -109q0 -68 -51 -113q-46 -41 -106 -41q-66 0 -112 46q-46 45 -46 110q0 61 47 106q46 45 110 45zM522 1316q-44 0 -75 -31.5t-31 -76.5q0 -43 31.5 -74t74.5 -31q45 0 76 31t31 76q0 44 -31 75t-76 31zM902 0h-85v148
q-107 -168 -316 -168q-166 0 -266 109q-49 53 -70.5 129t-21.5 196v494h85v-476q0 -164 45 -246q32 -57 90 -88q67 -36 150 -36t153 36.5t104 97.5q47 83 47 258v454h85v-908z" />
    <glyph glyph-name="Uhungarumlaut" unicode="&#x170;" horiz-adv-x="1299" 
d="M728 1524l175 240l85 -48l-217 -218zM441 1524l175 240l86 -48l-217 -218zM177 1365h90v-849q0 -109 11 -170t37 -107q40 -70 124 -119q98 -56 210 -56q153 0 266 96q68 58 92 132t24 224v849h90v-892q0 -170 -56 -268q-56 -96 -161 -157q-119 -68 -255 -68
q-192 0 -329 121q-79 68 -110 153q-33 84 -33 219v892z" />
    <glyph glyph-name="uhungarumlaut" unicode="&#x171;" horiz-adv-x="1044" 
d="M612 1115l174 239l86 -48l-217 -218zM325 1115l174 239l86 -48l-217 -218zM902 0h-85v148q-107 -168 -316 -168q-166 0 -266 109q-49 53 -70.5 129t-21.5 196v494h85v-476q0 -164 45 -246q32 -57 90 -88q67 -36 150 -36t153 36.5t104 97.5q47 83 47 258v454h85v-908z" />
    <glyph glyph-name="Uogonek" unicode="&#x172;" horiz-adv-x="1299" 
d="M701 -17q-55 -68 -55 -122q0 -73 88 -73q28 0 61 13l24 -62q-54 -19 -98 -19q-66 0 -110 38t-44 95q0 64 49 128q-206 12 -322 143q-117 130 -117 349v892h90v-849q0 -109 11 -170q11 -62 37 -107q40 -70 124 -119q98 -56 210 -56q153 0 266 96q68 58 92 132t24 224v849
h90v-892q0 -138 -31 -216q-44 -111 -150 -186t-239 -88z" />
    <glyph glyph-name="uogonek" unicode="&#x173;" horiz-adv-x="1044" 
d="M902 908v-908q-70 -82 -70 -139q0 -73 88 -73q28 0 61 13l25 -62q-54 -19 -99 -19q-66 0 -110 38q-44 39 -44 96q0 69 64 146v148q-107 -168 -316 -168q-166 0 -266 109q-49 53 -70.5 129t-21.5 196v494h85v-476q0 -164 45 -246q32 -57 90 -88q67 -36 150 -36t153 36.5
t104 97.5q47 83 47 258v454h85z" />
    <glyph glyph-name="Wcircumflex" unicode="&#x174;" horiz-adv-x="1791" 
d="M895 1679l-193 -182l-57 28l204 224h93l204 -224l-58 -28zM1246 0l-351 1241l-351 -1241h-25h-78l-414 1365h93l373 -1252l352 1252h100l352 -1252l374 1252h93l-414 -1365h-27h-77z" />
    <glyph glyph-name="wcircumflex" unicode="&#x175;" horiz-adv-x="1385" 
d="M693 1269l-193 -182l-58 28l204 224h93l204 -224l-57 -28zM443 0h-90l-338 908h93l291 -803l248 803h91l249 -804l291 804h92l-338 -908h-90l-249 792z" />
    <glyph glyph-name="Ycircumflex" unicode="&#x176;" horiz-adv-x="990" 
d="M496 1679l-193 -182l-58 28l205 224h92l204 -224l-57 -28zM450 0v573l-436 792h97l384 -708l385 708h97l-437 -792v-573h-90z" />
    <glyph glyph-name="ycircumflex" unicode="&#x177;" horiz-adv-x="877" 
d="M440 1269l-193 -182l-57 28l204 224h93l204 -224l-58 -28zM173 -478l215 501l-373 885h94l324 -782l335 782h94l-602 -1386h-87z" />
    <glyph glyph-name="Ydieresis" unicode="&#x178;" horiz-adv-x="990" 
d="M450 0v573l-436 792h97l384 -708l385 708h97l-437 -792v-573h-90zM685 1688q27 0 47 -20t20 -48t-20 -48.5t-48 -20.5t-48.5 20.5t-20.5 48.5t20.5 48t49.5 20zM308 1688q28 0 48 -20t20 -48t-20 -48.5t-49 -20.5q-27 0 -47.5 20.5t-20.5 47.5q0 29 20 49t49 20z" />
    <glyph glyph-name="Zacute" unicode="&#x179;" horiz-adv-x="1039" 
d="M500 1497l-49 28l174 240l92 -50zM958 1270l-803 -1186h819v-84h-913v95l809 1187h-745v83h833v-95z" />
    <glyph glyph-name="zacute" unicode="&#x17a;" horiz-adv-x="857" 
d="M423 1087l-49 28l174 240l92 -50zM788 835v-7l-618 -749h639v-79h-737v80l619 750h-587v78h684v-73z" />
    <glyph glyph-name="Zdotaccent" unicode="&#x17b;" horiz-adv-x="1039" 
d="M958 1270l-803 -1186h819v-84h-913v95l809 1187h-745v83h833v-95zM553 1688q28 0 48 -20.5t20 -47.5q0 -28 -20.5 -48.5t-48.5 -20.5q-27 0 -47.5 20.5t-20.5 47.5q0 29 20 49t49 20z" />
    <glyph glyph-name="zdotaccent" unicode="&#x17c;" horiz-adv-x="857" 
d="M788 835v-7l-618 -749h639v-79h-737v80l619 750h-587v78h684v-73zM441 1274q28 0 48 -20t20 -48t-20 -48.5t-49 -20.5q-27 0 -47.5 20.5t-20.5 48.5t20.5 48t48.5 20z" />
    <glyph glyph-name="Zcaron" unicode="&#x17d;" horiz-adv-x="1039" 
d="M302 1726l58 28l193 -182l193 182l57 -28l-204 -224h-92zM958 1270l-803 -1186h819v-84h-913v95l809 1187h-745v83h833v-95z" />
    <glyph glyph-name="zcaron" unicode="&#x17e;" horiz-adv-x="857" 
d="M191 1316l57 29l193 -182l193 182l58 -29l-204 -223h-93zM788 835v-7l-618 -749h639v-79h-737v80l619 750h-587v78h684v-73z" />
    <glyph glyph-name="longs" unicode="&#x17f;" horiz-adv-x="450" 
d="M263 1099v-1099h-85v830h-99v78h99v191q0 172 70 233q50 44 119 44q30 0 69 -11v-78q-29 7 -53 7q-63 0 -91.5 -46.5t-28.5 -148.5z" />
    <glyph glyph-name="florin" unicode="&#x192;" horiz-adv-x="928" 
d="M31 -392l16 80q19 -4 38 -4q131 0 165 175l198 971h-97l16 78h97l4 23l36 175q56 270 255 270q25 0 54 -6l-17 -80q-20 4 -38 4q-130 0 -164 -175l-43 -211h169l-16 -78h-169l-195 -958q-56 -270 -253 -270q-24 0 -56 6z" />
    <glyph glyph-name="Ohorn" unicode="&#x1a0;" horiz-adv-x="1555" 
d="M1298 1144q66 37 93.5 75t27.5 91q0 82 -72 152l63 32q86 -74 86 -183q0 -71 -34.5 -123.5t-115.5 -105.5q123 -180 123 -400q0 -189 -94 -352q-95 -165 -257 -259q-157 -91 -333 -91q-177 0 -334 91q-162 93 -257 260q-94 163 -94 351t93 351q94 164 255 259
q159 93 338 93q234 0 422 -153q45 -36 90 -88zM780 1301q-254 0 -431 -198q-159 -177 -159 -431q0 -161 83 -306q82 -141 223 -223q136 -79 288 -79t288 79q144 84 223 223q83 145 83 315q0 282 -203 468q-167 152 -395 152z" />
    <glyph glyph-name="ohorn" unicode="&#x1a1;" horiz-adv-x="1141" 
d="M932 709q85 58 85 145q0 81 -73 151l64 32q86 -75 86 -183q0 -124 -127 -214q35 -85 35 -182q0 -223 -154 -362q-128 -116 -305 -116q-203 0 -337 150q-121 136 -121 325q0 218 154 357q128 116 305 116q197 0 329 -141q33 -36 59 -78zM537 848q-157 0 -267 -117
q-97 -106 -97 -276q0 -195 124 -304q103 -91 246 -91q167 0 274 117q97 106 97 282q0 189 -124 298q-101 91 -253 91z" />
    <glyph glyph-name="Uhorn" unicode="&#x1af;" horiz-adv-x="1349" 
d="M1121 1365v-227q73 44 102 81q28 37 28 92q0 81 -73 151l64 31q86 -72 86 -183q0 -79 -47 -138q-46 -58 -160 -119v-580q0 -170 -56 -268q-56 -96 -161 -157q-119 -68 -255 -68q-192 0 -329 121q-79 68 -110 153q-33 84 -33 219v892h90v-849q0 -109 11 -170t37 -107
q40 -70 124 -119q98 -56 210 -56q153 0 266 96q68 58 92 132t24 224v849h90z" />
    <glyph glyph-name="uhorn" unicode="&#x1b0;" horiz-adv-x="1152" 
d="M902 908v-224q73 43 99 80q26 35 26 90q0 81 -73 151l64 31q86 -74 86 -184q0 -78 -48 -138.5t-154 -114.5v-599h-85v148q-107 -168 -316 -168q-166 0 -266 109q-49 53 -70.5 129t-21.5 196v494h85v-476q0 -164 45 -246q32 -57 90 -88q67 -36 150 -36t153 36.5t104 97.5
q47 83 47 258v454h85z" />
    <glyph glyph-name="uni01C4" unicode="&#x1c4;" horiz-adv-x="2306" 
d="M177 0v1365h257q248 0 424 -101q147 -85 221 -217q88 -157 88 -363q0 -292 -163 -467q-199 -217 -570 -217h-257zM441 1281h-174v-1197h174q210 0 360 87q128 73 196 194q80 142 80 319q0 250 -144 406q-177 191 -492 191zM1569 1726l58 28l193 -182l193 182l57 -28
l-204 -224h-93zM2225 1270l-803 -1186h819v-84h-913v95l809 1187h-745v83h833v-95z" />
    <glyph glyph-name="uni01C5" unicode="&#x1c5;" horiz-adv-x="2124" 
d="M177 0v1365h257q248 0 424 -101q147 -85 221 -217q88 -157 88 -363q0 -292 -163 -467q-199 -217 -570 -217h-257zM441 1281h-174v-1197h174q210 0 360 87q128 73 196 194q80 142 80 319q0 250 -144 406q-177 191 -492 191zM1458 1316l57 29l193 -182l193 182l57 -29
l-203 -223h-93zM2055 835v-7l-618 -749h639v-79h-737v80l619 750h-587v78h684v-73z" />
    <glyph glyph-name="uni01C6" unicode="&#x1c6;" horiz-adv-x="1988" 
d="M988 1365v-1365h-85v179q-138 -199 -362 -199q-201 0 -335 150q-121 134 -121 325q0 218 154 357q128 116 302 116q223 0 362 -198v635h85zM536 849q-158 0 -266 -117q-97 -106 -97 -277q0 -194 124 -303q104 -92 245 -92q161 0 266 115q97 106 97 287q0 188 -123 298
q-100 89 -246 89zM1322 1316l57 29l193 -182l193 182l58 -29l-204 -223h-93zM1919 835v-7l-618 -749h639v-79h-737v80l619 750h-587v78h684v-73z" />
    <glyph glyph-name="uni01C7" unicode="&#x1c7;" horiz-adv-x="1654" 
d="M177 0v1365h90v-1281h552v-84h-642zM1386 1365h90v-964q0 -180 -59 -283q-35 -60 -98 -97q-73 -41 -162 -41q-76 0 -138 28q-65 30 -141 95l53 64q66 -57 115.5 -80t107.5 -23q232 0 232 337v964z" />
    <glyph glyph-name="uni01C8" unicode="&#x1c8;" horiz-adv-x="1249" 
d="M177 0v1365h90v-1281h552v-84h-642zM847 -478v79q34 -8 53 -8q63 0 91.5 46.5t28.5 148.5v1120h85v-1120q0 -172 -70 -233q-50 -44 -119 -44q-30 0 -69 11zM1064 1275q28 0 48 -20.5t20 -48.5q0 -29 -20.5 -49.5t-48.5 -20.5t-48.5 20.5t-20.5 49.5t20.5 49t49.5 20z" />
    <glyph glyph-name="uni01C9" unicode="&#x1c9;" horiz-adv-x="767" 
d="M230 1365v-1365h-85v1365h85zM364 -478v79q34 -8 53 -8q63 0 91.5 46.5t28.5 148.5v1120h85v-1120q0 -172 -70 -233q-50 -44 -119 -44q-30 0 -69 11zM581 1275q28 0 48 -20.5t20 -48.5q0 -29 -20.5 -49.5t-48.5 -20.5t-48.5 20.5t-20.5 49.5t20.5 49t49.5 20z" />
    <glyph glyph-name="uni01CA" unicode="&#x1ca;" horiz-adv-x="2254" 
d="M1180 0l-913 1241v-1241h-90v1365h100l914 -1240v1240h90v-1365h-101zM1986 1365h90v-964q0 -180 -59 -283q-35 -60 -98 -97q-73 -41 -161 -41q-77 0 -139 28q-65 30 -141 95l53 64q67 -58 116 -80q51 -23 108 -23q231 0 231 337v964z" />
    <glyph glyph-name="uni01CB" unicode="&#x1cb;" horiz-adv-x="1849" 
d="M1180 0l-913 1241v-1241h-90v1365h100l914 -1240v1240h90v-1365h-101zM1447 -478v79q34 -8 54 -8q63 0 91.5 46.5t28.5 148.5v1120h85v-1120q0 -277 -189 -277q-31 0 -70 11zM1664 1275q28 0 48 -20.5t20 -48.5q0 -29 -20.5 -49.5t-48.5 -20.5t-48.5 20.5t-20.5 49.5
t20.5 49t49.5 20z" />
    <glyph glyph-name="uni01CC" unicode="&#x1cc;" horiz-adv-x="1435" 
d="M143 908h85v-148q105 168 316 168q166 0 266 -109q49 -53 70.5 -129t21.5 -196v-494h-85v476q0 164 -45 246q-33 58 -89 88q-67 36 -151 36q-83 0 -153 -36.5t-104 -96.5q-47 -85 -47 -259v-454h-85v908zM1034 -478v79q34 -8 53 -8q63 0 91.5 46.5t28.5 148.5v1120h85
v-1120q0 -172 -70 -233q-50 -44 -119 -44q-30 0 -69 11zM1251 1275q28 0 48 -20.5t20 -48.5q0 -29 -20.5 -49.5t-48.5 -20.5t-48.5 20.5t-20.5 49.5t20.5 49t49.5 20z" />
    <glyph glyph-name="uni01CD" unicode="&#x1cd;" horiz-adv-x="1248" 
d="M373 1726l57 28l193 -182l194 182l57 -28l-204 -224h-93zM279 404l-159 -404h-93l544 1365h105l544 -1365h-94l-159 404h-688zM622 1277l-311 -790h623z" />
    <glyph glyph-name="uni01CE" unicode="&#x1ce;" horiz-adv-x="1130" 
d="M287 1316l57 29l193 -182l193 182l58 -29l-204 -223h-93zM988 908v-908h-85v179q-67 -90 -130 -132q-106 -67 -233 -67q-200 0 -334 150q-121 134 -121 325q0 218 154 357q128 116 301 116q114 0 199.5 -47t163.5 -151v178h85zM539 849q-103 0 -189 -52
q-81 -49 -125 -129q-52 -94 -52 -213q0 -194 124 -303q104 -92 245 -92q162 0 267 116q97 106 97 282q0 192 -123 302q-101 89 -244 89z" />
    <glyph glyph-name="uni01CF" unicode="&#x1cf;" horiz-adv-x="445" 
d="M-28 1726l57 28l194 -182l193 182l57 -28l-204 -224h-93zM178 1365h90v-1365h-90v1365z" />
    <glyph glyph-name="uni01D0" unicode="&#x1d0;" horiz-adv-x="372" 
d="M-65 1316l57 29l194 -182l193 182l57 -29l-204 -223h-93zM143 908h85v-908h-85v908z" />
    <glyph glyph-name="uni01D1" unicode="&#x1d1;" horiz-adv-x="1569" 
d="M535 1726l57 28l193 -182l193 182l58 -28l-204 -224h-93zM784 1385q183 0 338 -93q162 -98 254 -259q93 -163 93 -351t-94 -351q-94 -166 -257 -260q-157 -91 -338 -91q-172 0 -329 91q-164 95 -257 260q-94 163 -94 362q0 183 93 340q100 167 255 259q158 93 336 93z
M781 1301q-255 0 -431 -198q-159 -177 -159 -432q0 -160 83 -305q81 -141 223 -223q136 -79 287 -79q152 0 288 79q144 84 223 223q83 146 83 315q0 280 -203 468q-166 152 -394 152z" />
    <glyph glyph-name="uni01D2" unicode="&#x1d2;" horiz-adv-x="1086" 
d="M293 1316l57 29l193 -182l194 182l57 -29l-204 -223h-93zM550 928q198 0 331 -150q121 -134 121 -323q0 -220 -154 -359q-128 -116 -304 -116q-204 0 -338 150q-121 136 -121 325q0 183 111 313q136 160 354 160zM537 848q-157 0 -267 -117q-97 -106 -97 -276
q0 -195 124 -304q103 -91 246 -91q167 0 274 117q97 106 97 282q0 189 -124 298q-101 91 -253 91z" />
    <glyph glyph-name="uni01D3" unicode="&#x1d3;" horiz-adv-x="1299" 
d="M399 1726l57 28l193 -182l193 182l58 -28l-204 -224h-93zM177 1365h90v-849q0 -109 11 -170t37 -107q40 -70 124 -119q98 -56 210 -56q153 0 266 96q68 58 92 132t24 224v849h90v-892q0 -170 -56 -268q-56 -96 -161 -157q-119 -68 -255 -68q-192 0 -329 121
q-79 68 -110 153q-33 84 -33 219v892z" />
    <glyph glyph-name="uni01D4" unicode="&#x1d4;" horiz-adv-x="1044" 
d="M272 1316l57 29l194 -182l193 182l57 -29l-204 -223h-93zM902 0h-85v148q-107 -168 -316 -168q-166 0 -266 109q-49 53 -70.5 129t-21.5 196v494h85v-476q0 -164 45 -246q32 -57 90 -88q67 -36 150 -36t153 36.5t104 97.5q47 83 47 258v454h85v-908z" />
    <glyph glyph-name="Gcaron" unicode="&#x1e6;" horiz-adv-x="1492" 
d="M541 1726l58 28l193 -182l193 182l57 -28l-204 -224h-92zM1299 591h-419v83h510v-46q0 -217 -89 -372q-76 -129 -199 -200q-131 -76 -304 -76q-190 0 -350 92q-161 93 -255 259q-93 163 -93 351q0 193 97 359q92 159 247 251q160 93 348 93q261 0 462 -195l-61 -61
q-169 172 -403 172q-269 0 -441 -196q-158 -179 -158 -423q0 -172 83 -317q82 -142 220 -221q139 -80 300 -80q196 0 331 114q86 73 127.5 171t46.5 242z" />
    <glyph glyph-name="gcaron" unicode="&#x1e7;" horiz-adv-x="1130" 
d="M286 1316l58 29l193 -182l193 182l57 -29l-204 -223h-92zM903 908h85v-925q0 -237 -143 -365q-130 -115 -324 -115q-120 0 -213.5 43t-176.5 137l57 58q52 -60 103 -95q97 -63 227 -63q187 0 291 116q94 104 94 284v30v166q-138 -199 -362 -199q-203 0 -336 150
q-120 135 -120 325q0 218 154 357q128 116 302 116q223 0 362 -198v178zM539 849q-103 0 -189 -52q-81 -49 -125 -129q-52 -94 -52 -213q0 -194 124 -303q104 -92 245 -92q162 0 267 116q97 106 97 282q0 192 -123 302q-101 89 -244 89z" />
    <glyph glyph-name="uni01F4" unicode="&#x1f4;" horiz-adv-x="1492" 
d="M787 1497l-48 28l174 240l91 -50zM1299 591h-419v83h510v-46q0 -217 -89 -372q-76 -129 -199 -200q-131 -76 -304 -76q-190 0 -350 92q-161 93 -255 259q-93 163 -93 351q0 193 97 359q92 159 247 251q160 93 348 93q261 0 462 -195l-61 -61q-169 172 -403 172
q-269 0 -441 -196q-158 -179 -158 -423q0 -172 83 -317q82 -142 220 -221q139 -80 300 -80q196 0 331 114q86 73 127.5 171t46.5 242z" />
    <glyph glyph-name="uni01F5" unicode="&#x1f5;" horiz-adv-x="1130" 
d="M529 1087l-49 28l174 240l92 -50zM903 908h85v-925q0 -237 -143 -365q-130 -115 -324 -115q-120 0 -213.5 43t-176.5 137l57 58q52 -60 103 -95q97 -63 227 -63q187 0 291 116q94 104 94 284v30v166q-138 -199 -362 -199q-203 0 -336 150q-120 135 -120 325
q0 218 154 357q128 116 302 116q223 0 362 -198v178zM539 849q-103 0 -189 -52q-81 -49 -125 -129q-52 -94 -52 -213q0 -194 124 -303q104 -92 245 -92q162 0 267 116q97 106 97 282q0 192 -123 302q-101 89 -244 89z" />
    <glyph glyph-name="Aringacute" unicode="&#x1fa;" horiz-adv-x="1248" 
d="M537 1869l-49 28l174 240l92 -50zM623 1773q65 0 112 -44q46 -45 46 -109q0 -68 -51 -114q-44 -40 -106 -40q-66 0 -112 46q-46 45 -46 110q0 61 47 106t110 45zM623 1726q-44 0 -75 -31.5t-31 -76.5q0 -43 31.5 -74t74.5 -31q45 0 76 31t31 76q0 44 -31 75t-76 31z
M279 404l-159 -404h-93l544 1365h105l544 -1365h-94l-159 404h-688zM622 1277l-311 -790h623z" />
    <glyph glyph-name="aringacute" unicode="&#x1fb;" horiz-adv-x="1130" 
d="M563 1363q65 0 112 -44q46 -45 46 -109q0 -66 -46 -109q-47 -45 -112 -45q-70 0 -116 52q-40 43 -40 104t47 106q46 45 109 45zM563 1316q-43 0 -74 -31.5t-31 -76.5q0 -41 32 -73t74 -32q44 0 75 31t31 76q0 44 -31 75t-76 31zM478 1497l-49 28l174 240l92 -50zM988 908
v-908h-85v179q-67 -90 -130 -132q-106 -67 -233 -67q-200 0 -334 150q-121 134 -121 325q0 218 154 357q128 116 301 116q114 0 199.5 -47t163.5 -151v178h85zM539 849q-103 0 -189 -52q-81 -49 -125 -129q-52 -94 -52 -213q0 -194 124 -303q104 -92 245 -92q162 0 267 116
q97 106 97 282q0 192 -123 302q-101 89 -244 89z" />
    <glyph glyph-name="AEacute" unicode="&#x1fc;" horiz-adv-x="1723" 
d="M1060 1497l-49 28l174 240l92 -50zM939 0v404h-610l-204 -404h-98l697 1365h878v-82h-573v-549h509v-83h-509v-567h594v-84h-684zM371 487h568v796h-166z" />
    <glyph glyph-name="aeacute" unicode="&#x1fd;" horiz-adv-x="1725" 
d="M846 1087l-48 28l174 240l91 -50zM1533 223l78 -33q-147 -210 -380 -210q-122 0 -222 59t-155 164q-67 -223 -374 -223q-159 0 -263 61q-132 77 -132 233q0 163 131 240q88 52 232 52h339q-8 110 -49 171q-76 112 -273 112q-153 0 -289 -96l-39 57q166 118 348 118
q179 0 283 -97q51 -47 78 -138q37 76 98 130q118 105 274 105q181 0 303 -137q120 -133 120 -351q0 -10 -1 -22h-764q14 -135 75 -219q102 -139 279 -139q191 0 303 163zM789 284v209h-311q-86 0 -155 -22.5t-103 -61.5q-50 -56 -50 -137q0 -110 96 -166q83 -47 214 -47
q85 0 154 22.5t104 61.5q51 57 51 141zM876 491h679q-16 138 -79 228q-43 61 -111.5 95.5t-145.5 34.5q-167 0 -268 -137q-60 -84 -75 -221z" />
    <glyph glyph-name="Oslashacute" unicode="&#x1fe;" horiz-adv-x="1584" 
d="M787 1497l-48 28l174 240l91 -50zM1250 1201l161 166l48 -47l-162 -167q56 -62 92 -130q87 -160 87 -340q0 -190 -94 -353q-95 -165 -257 -259q-157 -91 -334 -91q-258 0 -457 184l-162 -166l-48 47l162 167q-179 200 -179 469q0 189 93 352q94 164 255 259
q159 93 339 93q251 0 456 -184zM347 274l844 867q-172 160 -397 160q-157 0 -292 -78q-139 -79 -220 -222q-85 -148 -85 -322q0 -228 150 -405zM1237 1092l-843 -867q175 -161 397 -161q152 0 289 79q142 82 223 223q83 145 83 317q0 233 -149 409z" />
    <glyph glyph-name="oslashacute" unicode="&#x1ff;" horiz-adv-x="1114" 
d="M552 1087l-49 28l174 240l92 -50zM1015 867l-106 -106q106 -131 106 -305q0 -221 -154 -360q-128 -116 -306 -116q-177 0 -308 122l-104 -104l-45 43l106 106q-106 130 -106 307q0 219 154 358q128 116 306 116q179 0 309 -121l103 103zM852 705l-549 -548
q104 -97 251 -97q170 0 276 117q97 106 97 280q0 147 -75 248zM262 204l549 547q-107 97 -252 97q-169 0 -277 -117q-96 -107 -96 -283q0 -135 76 -244z" />
    <glyph glyph-name="uni0200" unicode="&#x200;" horiz-adv-x="1248" 
d="M640 1764l175 -240l-43 -26l-217 218zM354 1764l174 -240l-43 -26l-217 218zM279 404l-159 -404h-93l544 1365h105l544 -1365h-94l-159 404h-688zM622 1277l-311 -790h623z" />
    <glyph glyph-name="uni0201" unicode="&#x201;" horiz-adv-x="1130" 
d="M222 1354l174 -239l-43 -27l-217 218zM509 1354l174 -239l-43 -27l-217 218zM988 908v-908h-85v179q-67 -90 -130 -132q-106 -67 -233 -67q-200 0 -334 150q-121 134 -121 325q0 218 154 357q128 116 301 116q114 0 199.5 -47t163.5 -151v178h85zM539 849
q-103 0 -189 -52q-81 -49 -125 -129q-52 -94 -52 -213q0 -194 124 -303q104 -92 245 -92q162 0 267 116q97 106 97 282q0 192 -123 302q-101 89 -244 89z" />
    <glyph glyph-name="Scommaaccent" unicode="&#x218;" horiz-adv-x="1015" 
d="M515 -129l83 -35l-173 -219l-55 28zM855 1206l-71 -46q-110 143 -265 143q-137 0 -219 -93q-69 -78 -69 -176q0 -166 227 -255l138 -54q159 -62 233 -146t74 -202q0 -176 -130 -293q-116 -104 -284 -104q-146 0 -248 80t-145 227l87 25q28 -94 82 -153q92 -95 228 -95
q146 0 241 104q79 88 79 207q0 95 -61 159t-206 122l-133 52q-163 64 -226 163q-44 73 -44 163q0 156 112 255q110 96 269 96q206 0 331 -179z" />
    <glyph glyph-name="scommaaccent" unicode="&#x219;" horiz-adv-x="747" 
d="M279 -401l80 273l88 -27l-114 -263zM624 794l-70 -37q-39 51 -79.5 73t-97.5 22q-82 0 -134 -46q-53 -47 -53 -116q0 -66 46 -109q27 -26 137 -68l93 -37q104 -41 150 -93.5t46 -128.5q0 -119 -88 -198q-82 -76 -209 -76q-101 0 -171.5 48.5t-119.5 152.5l75 32
q34 -62 67 -95q62 -60 155 -60q101 0 157 65q47 55 47 122q0 65 -46 108q-18 18 -44 31q-27 13 -98 41l-104 41q-174 69 -174 217q0 107 78 175q80 70 194 70q151 0 243 -134z" />
    <glyph glyph-name="uni021A" unicode="&#x21a;" horiz-adv-x="881" 
d="M323 -401l80 273l88 -27l-114 -263zM853 1282h-368v-1282h-90v1282h-368v83h826v-83z" />
    <glyph glyph-name="uni021B" unicode="&#x21b;" horiz-adv-x="487" 
d="M156 -401l81 273l87 -27l-113 -263zM167 266v564h-109v78h109v239l85 34v-273h160v-78h-160v-564q0 -102 28.5 -148.5t91.5 -46.5q25 0 54 7v-78q-41 -11 -70 -11q-80 0 -132 57q-57 63 -57 220z" />
    <glyph glyph-name="uni0226" unicode="&#x226;" horiz-adv-x="1248" 
d="M279 404l-159 -404h-93l544 1365h105l544 -1365h-94l-159 404h-688zM622 1277l-311 -790h623zM624 1688q28 0 48 -20.5t20 -47.5q0 -28 -20.5 -48.5t-48.5 -20.5q-27 0 -47.5 20.5t-20.5 47.5q0 29 20 49t49 20z" />
    <glyph glyph-name="uni0227" unicode="&#x227;" horiz-adv-x="1130" 
d="M988 908v-908h-85v179q-67 -90 -130 -132q-106 -67 -233 -67q-200 0 -334 150q-121 134 -121 325q0 218 154 357q128 116 301 116q114 0 199.5 -47t163.5 -151v178h85zM539 849q-103 0 -189 -52q-81 -49 -125 -129q-52 -94 -52 -213q0 -194 124 -303q104 -92 245 -92
q162 0 267 116q97 106 97 282q0 192 -123 302q-101 89 -244 89zM538 1274q28 0 48 -20t20 -48t-20 -48.5t-49 -20.5q-27 0 -47.5 20.5t-20.5 47.5q0 29 20.5 49t48.5 20z" />
    <glyph glyph-name="uni0237" unicode="&#x237;" horiz-adv-x="390" 
d="M-11 -478v79q34 -8 53 -8q63 0 91.5 46.5t28.5 148.5v1120h85v-1120q0 -172 -70 -233q-50 -44 -119 -44q-30 0 -69 11z" />
    <glyph glyph-name="uni02BB" unicode="&#x2bb;" horiz-adv-x="425" 
d="M293 1415l50 -20l-152 -423l-82 30z" />
    <glyph glyph-name="afii57929" unicode="&#x2bc;" horiz-adv-x="498" 
d="M185 960l-55 22l154 434l85 -31z" />
    <glyph glyph-name="circumflex" unicode="&#x2c6;" horiz-adv-x="975" 
d="M488 1269l-194 -182l-57 28l204 224h93l204 -224l-57 -28z" />
    <glyph glyph-name="caron" unicode="&#x2c7;" horiz-adv-x="975" 
d="M237 1316l57 29l194 -182l193 182l57 -29l-204 -223h-93z" />
    <glyph glyph-name="uni02C9" unicode="&#x2c9;" horiz-adv-x="975" 
d="M234 1170v78h507v-78h-507z" />
    <glyph glyph-name="breve" unicode="&#x2d8;" horiz-adv-x="975" 
d="M246 1300l74 6q7 -68 52.5 -109.5t112.5 -41.5q66 0 111.5 40t58.5 111l73 -6q-16 -86 -63 -138q-71 -81 -179 -81q-99 0 -164 59t-76 160z" />
    <glyph glyph-name="dotaccent" unicode="&#x2d9;" horiz-adv-x="975" 
d="M488 1274q28 0 48 -20t20 -48q0 -29 -20 -49t-49 -20q-27 0 -47.5 20.5t-20.5 47.5q0 29 20 49t49 20z" />
    <glyph glyph-name="ring" unicode="&#x2da;" horiz-adv-x="975" 
d="M486 1363q65 0 112 -44q46 -45 46 -109q0 -66 -46 -109q-46 -45 -112 -45q-70 0 -116 52q-40 43 -40 104t47 106t109 45zM486 1316q-44 0 -74.5 -31.5t-30.5 -76.5q0 -43 31.5 -74t74.5 -31q44 0 75 31t31 76q0 44 -31 75t-76 31z" />
    <glyph glyph-name="ogonek" unicode="&#x2db;" horiz-adv-x="975" 
d="M927 -199l25 -62q-54 -19 -99 -19q-66 0 -110 38t-44 95q0 70 64 147h85q-70 -80 -70 -139q0 -73 89 -73q27 0 60 13z" />
    <glyph glyph-name="tilde" unicode="&#x2dc;" horiz-adv-x="975" 
d="M304 1139l-66 16q28 127 132 127q44 0 132 -41q60 -28 102 -28q51 0 67 67l65 -16q-21 -127 -131 -127q-54 0 -128 37q-67 33 -105 33q-47 0 -68 -68z" />
    <glyph glyph-name="hungarumlaut" unicode="&#x2dd;" horiz-adv-x="975" 
d="M299 1115l174 239l86 -48l-217 -218zM586 1115l174 239l86 -48l-217 -218z" />
    <glyph glyph-name="uni0309" unicode="&#x309;" horiz-adv-x="975" 
d="M423 1710l-23 58q51 16 100 16q71 0 113 -30.5t42 -82.5q0 -40 -26 -84l-30 -50q-10 -19 -15 -35h-77q1 14 9 27l7 10l8 12l11 18q38 61 38 85q0 65 -96 65q-26 0 -61 -9z" />
    <glyph glyph-name="uni0323" unicode="&#x323;" horiz-adv-x="975" 
d="M488 -159q28 0 48 -20.5t20 -48.5q0 -29 -20.5 -49.5t-48.5 -20.5t-48.5 21t-20.5 49t20.5 48.5t49.5 20.5z" />
    <glyph glyph-name="uni037E" unicode="&#x37e;" horiz-adv-x="430" 
d="M117 -294l-55 22l154 434l85 -31zM251 814q27 0 47 -20t20 -48t-20 -48t-48 -20t-48 20.5t-20 47.5q0 28 20 48t49 20z" />
    <glyph glyph-name="uni0387" unicode="&#x387;" horiz-adv-x="425" 
d="M214 752q27 0 47 -20t20 -48t-20 -48.5t-48 -20.5q-27 0 -47.5 20.5t-20.5 47.5q0 29 20 49t49 20z" />
    <glyph glyph-name="uni1E1E" unicode="&#x1e1e;" horiz-adv-x="879" 
d="M790 1365v-82h-523v-549h477v-83h-477v-651h-90v1365h613zM484 1688q28 0 48 -20t20 -48t-20 -48.5t-49 -20.5q-27 0 -47.5 20.5t-20.5 48.5t20.5 48t48.5 20z" />
    <glyph glyph-name="uni1E1F" unicode="&#x1e1f;" horiz-adv-x="494" 
d="M79 908h99v191q0 172 70 233q50 44 119 44q30 0 69 -11v-78q-29 7 -53 7q-63 0 -91.5 -46.5t-28.5 -148.5v-191h177v-78h-177v-830h-85v830h-99v78zM312 1688q28 0 48 -20.5t20 -47.5q0 -28 -20.5 -48.5t-48.5 -20.5q-27 0 -47.5 20.5t-20.5 47.5q0 29 20 49t49 20z" />
    <glyph glyph-name="Wgrave" unicode="&#x1e80;" horiz-adv-x="1791" 
d="M788 1765l174 -240l-48 -28l-217 218zM1246 0l-351 1241l-351 -1241h-25h-78l-414 1365h93l373 -1252l352 1252h100l352 -1252l374 1252h93l-414 -1365h-27h-77z" />
    <glyph glyph-name="wgrave" unicode="&#x1e81;" horiz-adv-x="1385" 
d="M572 1355l174 -240l-49 -28l-217 218zM443 0h-90l-338 908h93l291 -803l248 803h91l249 -804l291 804h92l-338 -908h-90l-249 792z" />
    <glyph glyph-name="Wacute" unicode="&#x1e82;" horiz-adv-x="1791" 
d="M891 1497l-49 28l174 240l92 -50zM1246 0l-351 1241l-351 -1241h-25h-78l-414 1365h93l373 -1252l352 1252h100l352 -1252l374 1252h93l-414 -1365h-27h-77z" />
    <glyph glyph-name="wacute" unicode="&#x1e83;" horiz-adv-x="1385" 
d="M627 1087l-49 28l174 240l92 -50zM443 0h-90l-338 908h93l291 -803l248 803h91l249 -804l291 804h92l-338 -908h-90l-249 792z" />
    <glyph glyph-name="Wdieresis" unicode="&#x1e84;" horiz-adv-x="1791" 
d="M1246 0l-351 1241l-351 -1241h-25h-78l-414 1365h93l373 -1252l352 1252h100l352 -1252l374 1252h93l-414 -1365h-27h-77zM1085 1688q27 0 47 -20t20 -48t-20 -48.5t-48 -20.5t-48.5 20.5t-20.5 48.5t20.5 48t49.5 20zM708 1688q28 0 48 -20.5t20 -47.5
q0 -28 -20.5 -48.5t-48.5 -20.5t-48 20.5t-20 48.5t20.5 48t48.5 20z" />
    <glyph glyph-name="wdieresis" unicode="&#x1e85;" horiz-adv-x="1385" 
d="M443 0h-90l-338 908h93l291 -803l248 803h91l249 -804l291 804h92l-338 -908h-90l-249 792zM505 1274q28 0 48 -20t20 -48t-20 -48.5t-49 -20.5q-27 0 -47.5 20.5t-20.5 47.5q0 29 20.5 49t48.5 20zM883 1274q27 0 47 -20t20 -48t-20 -48.5t-48 -20.5t-48.5 20.5
t-20.5 47.5q0 29 20.5 49t49.5 20z" />
    <glyph glyph-name="uni1EA0" unicode="&#x1ea0;" horiz-adv-x="1248" 
d="M279 404l-159 -404h-93l544 1365h105l544 -1365h-94l-159 404h-688zM622 1277l-311 -790h623zM624 -159q28 0 48 -20.5t20 -47.5q0 -28 -20.5 -48.5t-48.5 -20.5t-48 20.5t-20 48.5t20.5 48t48.5 20z" />
    <glyph glyph-name="uni1EA1" unicode="&#x1ea1;" horiz-adv-x="1130" 
d="M988 908v-908h-85v179q-67 -90 -130 -132q-106 -67 -233 -67q-200 0 -334 150q-121 134 -121 325q0 218 154 357q128 116 301 116q114 0 199.5 -47t163.5 -151v178h85zM539 849q-103 0 -189 -52q-81 -49 -125 -129q-52 -94 -52 -213q0 -194 124 -303q104 -92 245 -92
q162 0 267 116q97 106 97 282q0 192 -123 302q-101 89 -244 89zM562 -159q28 0 48 -20t20 -48t-20.5 -48.5t-48.5 -20.5q-27 0 -47.5 20.5t-20.5 48.5t20.5 48t48.5 20z" />
    <glyph glyph-name="uni1EA2" unicode="&#x1ea2;" horiz-adv-x="1248" 
d="M522 1710l-23 58q51 16 99 16q72 0 113.5 -30.5t41.5 -82.5q0 -43 -25 -84l-30 -50q-12 -19 -15 -35h-77q2 14 9 27l7 10l8 12l11 18q37 58 37 85q0 65 -96 65q-26 0 -60 -9zM279 404l-159 -404h-93l544 1365h105l544 -1365h-94l-159 404h-688zM622 1277l-311 -790h623z
" />
    <glyph glyph-name="uni1EA3" unicode="&#x1ea3;" horiz-adv-x="1130" 
d="M988 908v-908h-85v179q-67 -90 -130 -132q-106 -67 -233 -67q-200 0 -334 150q-121 134 -121 325q0 218 154 357q128 116 301 116q114 0 199.5 -47t163.5 -151v178h85zM539 849q-103 0 -189 -52q-81 -49 -125 -129q-52 -94 -52 -213q0 -194 124 -303q104 -92 245 -92
q162 0 267 116q97 106 97 282q0 192 -123 302q-101 89 -244 89zM454 1295l-23 59q52 16 100 16q72 0 113.5 -30.5t41.5 -83.5q0 -39 -26 -83l-29 -50q-12 -20 -15 -35h-77q0 14 9 27l6 10l8 12l12 18q37 58 37 86q0 64 -95 64q-29 0 -62 -10z" />
    <glyph glyph-name="uni1EA4" unicode="&#x1ea4;" horiz-adv-x="1248" 
d="M577 1749h93l204 -224l-57 -28l-194 182l-193 -182l-57 28zM279 404l-159 -404h-93l544 1365h105l544 -1365h-94l-159 404h-688zM622 1277l-311 -790h623zM830 1610l-49 28l174 239l92 -49z" />
    <glyph glyph-name="uni1EA5" unicode="&#x1ea5;" horiz-adv-x="1130" 
d="M491 1305h93l204 -224l-58 -28l-193 182l-193 -182l-57 28zM809 1297l-49 28l174 240l92 -50zM988 908v-908h-85v179q-67 -90 -130 -132q-106 -67 -233 -67q-200 0 -334 150q-121 134 -121 325q0 218 154 357q128 116 301 116q114 0 199.5 -47t163.5 -151v178h85z
M539 849q-103 0 -189 -52q-81 -49 -125 -129q-52 -94 -52 -213q0 -194 124 -303q104 -92 245 -92q162 0 267 116q97 106 97 282q0 192 -123 302q-101 89 -244 89z" />
    <glyph glyph-name="uni1EA6" unicode="&#x1ea6;" horiz-adv-x="1248" 
d="M623 1679l-193 -182l-57 28l204 224h93l204 -224l-57 -28zM851 1877l174 -239l-49 -28l-217 218zM279 404l-159 -404h-93l544 1365h105l544 -1365h-94l-159 404h-688zM622 1277l-311 -790h623z" />
    <glyph glyph-name="uni1EA7" unicode="&#x1ea7;" horiz-adv-x="1130" 
d="M676 1565l174 -240l-49 -28l-217 218zM537 1235l-193 -182l-57 28l204 224h93l204 -224l-58 -28zM988 908v-908h-85v179q-67 -90 -130 -132q-106 -67 -233 -67q-200 0 -334 150q-121 134 -121 325q0 218 154 357q128 116 301 116q114 0 199.5 -47t163.5 -151v178h85z
M539 849q-103 0 -189 -52q-81 -49 -125 -129q-52 -94 -52 -213q0 -194 124 -303q104 -92 245 -92q162 0 267 116q97 106 97 282q0 192 -123 302q-101 89 -244 89z" />
    <glyph glyph-name="uni1EA8" unicode="&#x1ea8;" horiz-adv-x="1248" 
d="M577 1749h93l204 -224l-57 -28l-194 182l-193 -182l-57 28zM279 404l-159 -404h-93l544 1365h105l544 -1365h-94l-159 404h-688zM622 1277l-311 -790h623zM834 1811l-23 58q51 16 99 16q72 0 113.5 -30.5t41.5 -83.5q0 -40 -25 -83l-30 -50q-12 -20 -15 -35h-77
q2 13 9 27l6 10l8 12l12 18q37 58 37 86q0 64 -95 64q-27 0 -61 -9z" />
    <glyph glyph-name="uni1EA9" unicode="&#x1ea9;" horiz-adv-x="1130" 
d="M491 1305h93l204 -224l-58 -28l-193 182l-193 -182l-57 28zM988 908v-908h-85v179q-67 -90 -130 -132q-106 -67 -233 -67q-200 0 -334 150q-121 134 -121 325q0 218 154 357q128 116 301 116q114 0 199.5 -47t163.5 -151v178h85zM539 849q-103 0 -189 -52
q-81 -49 -125 -129q-52 -94 -52 -213q0 -194 124 -303q104 -92 245 -92q162 0 267 116q97 106 97 282q0 192 -123 302q-101 89 -244 89zM686 1498l-23 58q51 16 100 16q71 0 113 -30.5t42 -82.5q0 -40 -26 -84l-30 -50q-11 -21 -15 -35h-77q2 14 9 27l7 10l7 12l12 18
q38 61 38 85q0 65 -95 65q-28 0 -62 -9z" />
    <glyph glyph-name="uni1EAA" unicode="&#x1eaa;" horiz-adv-x="1248" 
d="M623 1627l-193 -182l-57 28l204 224h93l204 -224l-57 -28zM279 404l-159 -404h-93l544 1365h105l544 -1365h-94l-159 404h-688zM622 1277l-311 -790h623zM440 1789l-66 15q29 128 132 128q45 0 132 -41q63 -29 102 -29q51 0 67 67l66 -15q-22 -127 -132 -127
q-54 0 -128 37q-67 33 -104 33q-48 0 -69 -68z" />
    <glyph glyph-name="uni1EAB" unicode="&#x1eab;" horiz-adv-x="1130" 
d="M537 1235l-193 -182l-58 28l205 224h92l204 -224l-57 -28zM988 908v-908h-85v179q-67 -90 -130 -132q-106 -67 -233 -67q-200 0 -334 150q-121 134 -121 325q0 218 154 357q128 116 301 116q114 0 199.5 -47t163.5 -151v178h85zM539 849q-103 0 -189 -52
q-81 -49 -125 -129q-52 -94 -52 -213q0 -194 124 -303q104 -92 245 -92q162 0 267 116q97 106 97 282q0 192 -123 302q-101 89 -244 89zM353 1431l-66 16q28 127 133 127q42 0 132 -41q61 -29 102 -29q49 0 66 68l66 -15q-23 -128 -132 -128q-54 0 -128 37q-67 33 -104 33
q-48 0 -69 -68z" />
    <glyph glyph-name="uni1EAC" unicode="&#x1eac;" horiz-adv-x="1248" 
d="M623 1679l-193 -182l-57 28l204 224h93l204 -224l-57 -28zM279 404l-159 -404h-93l544 1365h105l544 -1365h-94l-159 404h-688zM622 1277l-311 -790h623zM624 -159q28 0 48 -20.5t20 -47.5q0 -28 -20.5 -48.5t-48.5 -20.5t-48 20.5t-20 48.5t20.5 48t48.5 20z" />
    <glyph glyph-name="uni1EAD" unicode="&#x1ead;" horiz-adv-x="1130" 
d="M537 1269l-193 -182l-57 28l204 224h93l204 -224l-58 -28zM988 908v-908h-85v179q-67 -90 -130 -132q-106 -67 -233 -67q-200 0 -334 150q-121 134 -121 325q0 218 154 357q128 116 301 116q114 0 199.5 -47t163.5 -151v178h85zM539 849q-103 0 -189 -52
q-81 -49 -125 -129q-52 -94 -52 -213q0 -194 124 -303q104 -92 245 -92q162 0 267 116q97 106 97 282q0 192 -123 302q-101 89 -244 89zM562 -159q28 0 48 -20t20 -48t-20.5 -48.5t-48.5 -20.5q-27 0 -47.5 20.5t-20.5 48.5t20.5 48t48.5 20z" />
    <glyph glyph-name="uni1EAE" unicode="&#x1eae;" horiz-adv-x="1248" 
d="M381 1659l74 6q8 -69 53 -110.5t112 -41.5t112 40t58 112l73 -6q-19 -104 -83 -162t-158 -58q-100 0 -164.5 59.5t-76.5 160.5zM612 1661l-49 28l174 240l92 -50zM279 404l-159 -404h-93l544 1365h105l544 -1365h-94l-159 404h-688zM622 1277l-311 -790h623z" />
    <glyph glyph-name="uni1EAF" unicode="&#x1eaf;" horiz-adv-x="1130" 
d="M540 1297l-49 28l174 240l91 -50zM298 1266l73 6q8 -68 53.5 -109.5t112.5 -41.5q66 0 111 40t58 111l74 -6q-19 -103 -83 -161t-159 -58q-99 0 -164 59.5t-76 159.5zM988 908v-908h-85v179q-67 -90 -130 -132q-106 -67 -233 -67q-200 0 -334 150q-121 134 -121 325
q0 218 154 357q128 116 301 116q114 0 199.5 -47t163.5 -151v178h85zM539 849q-103 0 -189 -52q-81 -49 -125 -129q-52 -94 -52 -213q0 -194 124 -303q104 -92 245 -92q162 0 267 116q97 106 97 282q0 192 -123 302q-101 89 -244 89z" />
    <glyph glyph-name="uni1EB0" unicode="&#x1eb0;" horiz-adv-x="1248" 
d="M381 1659l74 6q8 -69 53 -110.5t112 -41.5t112 40t58 112l73 -6q-19 -104 -83 -162t-158 -58q-100 0 -164.5 59.5t-76.5 160.5zM500 1929l174 -240l-49 -28l-217 218zM279 404l-159 -404h-93l544 1365h105l544 -1365h-94l-159 404h-688zM622 1277l-311 -790h623z" />
    <glyph glyph-name="uni1EB1" unicode="&#x1eb1;" horiz-adv-x="1130" 
d="M410 1565l173 -240l-48 -28l-217 218zM298 1266l73 6q8 -68 53.5 -109.5t112.5 -41.5q66 0 111 40t58 111l74 -6q-19 -103 -83 -161t-159 -58q-99 0 -164 59.5t-76 159.5zM988 908v-908h-85v179q-67 -90 -130 -132q-106 -67 -233 -67q-200 0 -334 150q-121 134 -121 325
q0 218 154 357q128 116 301 116q114 0 199.5 -47t163.5 -151v178h85zM539 849q-103 0 -189 -52q-81 -49 -125 -129q-52 -94 -52 -213q0 -194 124 -303q104 -92 245 -92q162 0 267 116q97 106 97 282q0 192 -123 302q-101 89 -244 89z" />
    <glyph glyph-name="uni1EB2" unicode="&#x1eb2;" horiz-adv-x="1248" 
d="M381 1659l74 6q8 -69 53 -110.5t112 -41.5t112 40t58 112l73 -6q-19 -104 -83 -162t-158 -58q-100 0 -164.5 59.5t-76.5 160.5zM279 404l-159 -404h-93l544 1365h105l544 -1365h-94l-159 404h-688zM622 1277l-311 -790h623zM500 1862l-23 58q52 16 100 16
q71 0 112.5 -30.5t41.5 -83.5q0 -42 -25 -83l-30 -50q-11 -21 -15 -35h-77q2 14 9 27l6 10l8 12l12 18q37 59 37 86q0 64 -95 64q-27 0 -61 -9z" />
    <glyph glyph-name="uni1EB3" unicode="&#x1eb3;" horiz-adv-x="1130" 
d="M298 1266l73 6q8 -68 53.5 -109.5t112.5 -41.5q66 0 111 40t58 111l74 -6q-19 -103 -83 -161t-159 -58q-99 0 -164 59.5t-76 159.5zM988 908v-908h-85v179q-67 -90 -130 -132q-106 -67 -233 -67q-200 0 -334 150q-121 134 -121 325q0 218 154 357q128 116 301 116
q114 0 199.5 -47t163.5 -151v178h85zM539 849q-103 0 -189 -52q-81 -49 -125 -129q-52 -94 -52 -213q0 -194 124 -303q104 -92 245 -92q162 0 267 116q97 106 97 282q0 192 -123 302q-101 89 -244 89zM416 1498l-23 58q52 16 100 16q71 0 113 -30.5t42 -82.5q0 -40 -26 -84
l-29 -50q-12 -20 -15 -35h-77q0 14 9 27l6 10l8 12l12 18q37 59 37 85q0 65 -95 65q-28 0 -62 -9z" />
    <glyph glyph-name="uni1EB4" unicode="&#x1eb4;" horiz-adv-x="1248" 
d="M381 1659l74 6q8 -69 53 -110.5t112 -41.5t112 40t58 112l73 -6q-19 -104 -83 -162t-158 -58q-100 0 -164.5 59.5t-76.5 160.5zM279 404l-159 -404h-93l544 1365h105l544 -1365h-94l-159 404h-688zM622 1277l-311 -790h623zM440 1789l-66 15q29 128 132 128q45 0 132 -41
q63 -29 102 -29q51 0 67 67l66 -15q-22 -127 -132 -127q-54 0 -128 37q-67 33 -104 33q-48 0 -69 -68z" />
    <glyph glyph-name="uni1EB5" unicode="&#x1eb5;" horiz-adv-x="1130" 
d="M297 1266l74 6q8 -68 53.5 -109.5t111.5 -41.5q67 0 112 40t58 111l73 -6q-19 -103 -83 -161t-158 -58q-99 0 -164.5 59.5t-76.5 159.5zM988 908v-908h-85v179q-67 -90 -130 -132q-106 -67 -233 -67q-200 0 -334 150q-121 134 -121 325q0 218 154 357q128 116 301 116
q114 0 199.5 -47t163.5 -151v178h85zM539 849q-103 0 -189 -52q-81 -49 -125 -129q-52 -94 -52 -213q0 -194 124 -303q104 -92 245 -92q162 0 267 116q97 106 97 282q0 192 -123 302q-101 89 -244 89zM353 1425l-66 15q29 128 133 128q42 0 132 -41q61 -29 102 -29
q50 0 66 67l66 -15q-22 -127 -132 -127q-54 0 -128 37q-67 33 -104 33q-48 0 -69 -68z" />
    <glyph glyph-name="uni1EB6" unicode="&#x1eb6;" horiz-adv-x="1248" 
d="M381 1710l74 6q7 -68 52.5 -109.5t112.5 -41.5t112 40t58 111l73 -6q-19 -103 -83 -161t-159 -58q-99 0 -164 59t-76 160zM279 404l-159 -404h-93l544 1365h105l544 -1365h-94l-159 404h-688zM622 1277l-311 -790h623zM624 -159q28 0 48 -20.5t20 -47.5
q0 -28 -20.5 -48.5t-48.5 -20.5t-48 20.5t-20 48.5t20.5 48t48.5 20z" />
    <glyph glyph-name="uni1EB7" unicode="&#x1eb7;" horiz-adv-x="1130" 
d="M295 1300l73 6q8 -68 53.5 -109.5t111.5 -41.5q67 0 112 40t58 111l74 -6q-20 -103 -84 -161t-158 -58q-99 0 -164 60q-65 58 -76 159zM988 908v-908h-85v179q-67 -90 -130 -132q-106 -67 -233 -67q-200 0 -334 150q-121 134 -121 325q0 218 154 357q128 116 301 116
q114 0 199.5 -47t163.5 -151v178h85zM539 849q-103 0 -189 -52q-81 -49 -125 -129q-52 -94 -52 -213q0 -194 124 -303q104 -92 245 -92q162 0 267 116q97 106 97 282q0 192 -123 302q-101 89 -244 89zM562 -159q28 0 48 -20t20 -48t-20.5 -48.5t-48.5 -20.5
q-27 0 -47.5 20.5t-20.5 48.5t20.5 48t48.5 20z" />
    <glyph glyph-name="uni1EB8" unicode="&#x1eb8;" horiz-adv-x="961" 
d="M840 1365v-82h-573v-549h509v-83h-509v-567h594v-84h-684v1365h663zM547 -159q28 0 48 -20t20 -48t-20 -48.5t-49 -20.5q-27 0 -47.5 20.5t-20.5 48.5t20.5 48t48.5 20z" />
    <glyph glyph-name="uni1EB9" unicode="&#x1eb9;" horiz-adv-x="1022" 
d="M938 418h-764q8 -115 64 -204q47 -73 122 -114q74 -40 168 -40q192 0 303 163l78 -33q-143 -210 -380 -210q-197 0 -323 142q-121 136 -121 332q0 222 152 365q118 109 278 109q182 0 303 -136q56 -63 88 -156.5t32 -195.5v-22zM174 491h678q-16 141 -78 228
q-43 61 -111.5 95.5t-146.5 34.5q-120 0 -211 -76q-121 -99 -131 -282zM528 -159q27 0 47 -20t20 -48t-20 -48.5t-49 -20.5q-27 0 -47.5 20.5t-20.5 48.5t20.5 48t49.5 20z" />
    <glyph glyph-name="uni1EBA" unicode="&#x1eba;" horiz-adv-x="961" 
d="M840 1365v-82h-573v-549h509v-83h-509v-567h594v-84h-684v1365h663zM415 1710l-23 58q51 16 99 16q71 0 113 -30.5t42 -82.5q0 -43 -25 -84l-30 -50q-11 -21 -15 -35h-77q0 14 9 27l7 10l7 12l12 18q37 58 37 86q0 64 -96 64q-25 0 -60 -9z" />
    <glyph glyph-name="uni1EBB" unicode="&#x1ebb;" horiz-adv-x="1022" 
d="M938 418h-764q8 -115 64 -204q47 -73 122 -114q74 -40 168 -40q192 0 303 163l78 -33q-143 -210 -380 -210q-197 0 -323 142q-121 136 -121 332q0 222 152 365q118 109 278 109q182 0 303 -136q56 -63 88 -156.5t32 -195.5v-22zM174 491h678q-16 141 -78 228
q-43 61 -111.5 95.5t-146.5 34.5q-120 0 -211 -76q-121 -99 -131 -282zM425 1295l-23 59q52 16 99 16q72 0 113.5 -30.5t41.5 -83.5q0 -42 -25 -83l-30 -50q-12 -20 -15 -35h-77q1 14 9 27l6 10l8 12l12 18q37 58 37 86q0 64 -95 64q-28 0 -61 -10z" />
    <glyph glyph-name="uni1EBC" unicode="&#x1ebc;" horiz-adv-x="961" 
d="M840 1365v-82h-573v-549h509v-83h-509v-567h594v-84h-684v1365h663zM295 1549l-65 15q27 128 132 128q42 0 132 -41q59 -28 102 -28q50 0 66 66l66 -15q-22 -127 -132 -127q-54 0 -128 37q-68 33 -104 33q-48 0 -69 -68z" />
    <glyph glyph-name="uni1EBD" unicode="&#x1ebd;" horiz-adv-x="1022" 
d="M938 418h-764q8 -115 64 -204q47 -73 122 -114q74 -40 168 -40q192 0 303 163l78 -33q-143 -210 -380 -210q-197 0 -323 142q-121 136 -121 332q0 222 152 365q118 109 278 109q182 0 303 -136q56 -63 88 -156.5t32 -195.5v-22zM174 491h678q-16 141 -78 228
q-43 61 -111.5 95.5t-146.5 34.5q-120 0 -211 -76q-121 -99 -131 -282zM328 1139l-66 16q28 127 133 127q42 0 132 -41q59 -28 102 -28q50 0 66 67l66 -16q-22 -127 -132 -127q-54 0 -128 37q-67 33 -105 33q-47 0 -68 -68z" />
    <glyph glyph-name="uni1EBE" unicode="&#x1ebe;" horiz-adv-x="961" 
d="M449 1749h93l204 -224l-58 -28l-193 182l-193 -182l-57 28zM840 1365v-82h-573v-549h509v-83h-509v-567h594v-84h-684v1365h663zM702 1610l-49 28l174 239l92 -49z" />
    <glyph glyph-name="uni1EBF" unicode="&#x1ebf;" horiz-adv-x="1022" 
d="M788 1297l-49 28l174 240l92 -50zM470 1305h92l204 -224l-57 -28l-193 182l-193 -182l-58 28zM938 418h-764q8 -115 64 -204q47 -73 122 -114q74 -40 168 -40q192 0 303 163l78 -33q-143 -210 -380 -210q-197 0 -323 142q-121 136 -121 332q0 222 152 365
q118 109 278 109q182 0 303 -136q56 -63 88 -156.5t32 -195.5v-22zM174 491h678q-16 141 -78 228q-43 61 -111.5 95.5t-146.5 34.5q-120 0 -211 -76q-121 -99 -131 -282z" />
    <glyph glyph-name="uni1EC0" unicode="&#x1ec0;" horiz-adv-x="961" 
d="M495 1679l-193 -182l-57 28l204 224h93l204 -224l-58 -28zM723 1877l174 -239l-49 -28l-217 218zM840 1365v-82h-573v-549h509v-83h-509v-567h594v-84h-684v1365h663z" />
    <glyph glyph-name="uni1EC1" unicode="&#x1ec1;" horiz-adv-x="1022" 
d="M655 1565l174 -240l-49 -28l-217 218zM516 1235l-193 -182l-58 28l205 224h92l204 -224l-57 -28zM938 418h-764q8 -115 64 -204q47 -73 122 -114q74 -40 168 -40q192 0 303 163l78 -33q-143 -210 -380 -210q-197 0 -323 142q-121 136 -121 332q0 222 152 365
q118 109 278 109q182 0 303 -136q56 -63 88 -156.5t32 -195.5v-22zM174 491h678q-16 141 -78 228q-43 61 -111.5 95.5t-146.5 34.5q-120 0 -211 -76q-121 -99 -131 -282z" />
    <glyph glyph-name="uni1EC2" unicode="&#x1ec2;" horiz-adv-x="961" 
d="M449 1749h93l204 -224l-58 -28l-193 182l-193 -182l-57 28zM840 1365v-82h-573v-549h509v-83h-509v-567h594v-84h-684v1365h663zM706 1811l-24 58q51 16 100 16q71 0 113 -30.5t42 -82.5q0 -40 -26 -84l-29 -50q-12 -20 -15 -35h-77q0 13 9 27l6 10l8 12l12 18
q37 58 37 85q0 65 -95 65q-27 0 -61 -9z" />
    <glyph glyph-name="uni1EC3" unicode="&#x1ec3;" horiz-adv-x="1022" 
d="M470 1305h92l204 -224l-57 -28l-193 182l-193 -182l-58 28zM938 418h-764q8 -115 64 -204q47 -73 122 -114q74 -40 168 -40q192 0 303 163l78 -33q-143 -210 -380 -210q-197 0 -323 142q-121 136 -121 332q0 222 152 365q118 109 278 109q182 0 303 -136
q56 -63 88 -156.5t32 -195.5v-22zM174 491h678q-16 141 -78 228q-43 61 -111.5 95.5t-146.5 34.5q-120 0 -211 -76q-121 -99 -131 -282zM665 1498l-23 58q51 16 99 16q71 0 113 -30.5t42 -82.5q0 -43 -25 -84l-30 -50q-11 -21 -15 -35h-77q1 14 9 27l7 10l7 12l12 18
q37 58 37 85q0 65 -95 65q-26 0 -61 -9z" />
    <glyph glyph-name="uni1EC4" unicode="&#x1ec4;" horiz-adv-x="961" 
d="M495 1627l-193 -182l-57 28l204 224h93l204 -224l-58 -28zM840 1365v-82h-573v-549h509v-83h-509v-567h594v-84h-684v1365h663zM308 1789l-66 15q29 128 132 128q45 0 132 -41q63 -29 102 -29q51 0 67 67l66 -15q-22 -127 -132 -127q-54 0 -128 37q-67 33 -105 33
q-47 0 -68 -68z" />
    <glyph glyph-name="uni1EC5" unicode="&#x1ec5;" horiz-adv-x="1022" 
d="M516 1235l-193 -182l-58 28l205 224h92l204 -224l-57 -28zM938 418h-764q8 -115 64 -204q47 -73 122 -114q74 -40 168 -40q192 0 303 163l78 -33q-143 -210 -380 -210q-197 0 -323 142q-121 136 -121 332q0 222 152 365q118 109 278 109q182 0 303 -136q56 -63 88 -156.5
t32 -195.5v-22zM174 491h678q-16 141 -78 228q-43 61 -111.5 95.5t-146.5 34.5q-120 0 -211 -76q-121 -99 -131 -282zM329 1425l-65 15q27 128 132 128q44 0 132 -41q61 -29 102 -29q50 0 66 67l66 -15q-21 -127 -132 -127q-54 0 -127 37q-67 33 -105 33q-48 0 -69 -68z" />
    <glyph glyph-name="uni1EC6" unicode="&#x1ec6;" horiz-adv-x="961" 
d="M519 1679l-193 -182l-57 28l204 224h93l204 -224l-58 -28zM840 1365v-82h-573v-549h509v-83h-509v-567h594v-84h-684v1365h663zM547 -159q28 0 48 -20t20 -48t-20 -48.5t-49 -20.5q-27 0 -47.5 20.5t-20.5 48.5t20.5 48t48.5 20z" />
    <glyph glyph-name="uni1EC7" unicode="&#x1ec7;" horiz-adv-x="1022" 
d="M516 1269l-193 -182l-58 28l205 224h92l204 -224l-57 -28zM938 418h-764q8 -115 64 -204q47 -73 122 -114q74 -40 168 -40q192 0 303 163l78 -33q-143 -210 -380 -210q-197 0 -323 142q-121 136 -121 332q0 222 152 365q118 109 278 109q182 0 303 -136q56 -63 88 -156.5
t32 -195.5v-22zM174 491h678q-16 141 -78 228q-43 61 -111.5 95.5t-146.5 34.5q-120 0 -211 -76q-121 -99 -131 -282zM528 -159q27 0 47 -20t20 -48t-20 -48.5t-49 -20.5q-27 0 -47.5 20.5t-20.5 48.5t20.5 48t49.5 20z" />
    <glyph glyph-name="uni1EC8" unicode="&#x1ec8;" horiz-adv-x="445" 
d="M178 1365h90v-1365h-90v1365zM114 1710l-23 58q51 16 100 16q72 0 113.5 -30.5t41.5 -83.5q0 -39 -26 -83l-30 -50q-11 -21 -15 -35h-77q2 14 9 27l7 10l8 12l11 18q38 61 38 86q0 64 -96 64q-27 0 -61 -9z" />
    <glyph glyph-name="uni1EC9" unicode="&#x1ec9;" horiz-adv-x="372" 
d="M143 908h85v-908h-85v908zM79 1295l-23 59q52 16 100 16q72 0 113.5 -30.5t41.5 -83.5q0 -39 -26 -83l-30 -50q-11 -21 -15 -35h-77q1 14 9 27l7 10l8 12l11 18q38 59 38 86q0 64 -95 64q-29 0 -62 -10z" />
    <glyph glyph-name="uni1ECA" unicode="&#x1eca;" horiz-adv-x="445" 
d="M177 1365h90v-1365h-90v1365zM223 -159q28 0 48 -20t20 -48t-20 -48.5t-49 -20.5q-27 0 -47.5 20.5t-20.5 48.5t20.5 48t48.5 20z" />
    <glyph glyph-name="uni1ECB" unicode="&#x1ecb;" horiz-adv-x="372" 
d="M143 908h85v-908h-85v908zM187 1275q28 0 48 -20.5t20 -48.5q0 -29 -20.5 -49.5t-48.5 -20.5t-48.5 20.5t-20.5 48.5q0 29 20.5 49.5t49.5 20.5zM187 -159q28 0 48 -20t20 -48t-20 -48.5t-49 -20.5q-27 0 -47.5 20.5t-20.5 48.5t20.5 48t48.5 20z" />
    <glyph glyph-name="uni1ECC" unicode="&#x1ecc;" horiz-adv-x="1569" 
d="M784 1385q183 0 338 -93q162 -98 254 -259q93 -163 93 -351t-94 -351q-94 -166 -257 -260q-157 -91 -338 -91q-172 0 -329 91q-164 95 -257 260q-94 163 -94 362q0 183 93 340q100 167 255 259q158 93 336 93zM781 1301q-255 0 -431 -198q-159 -177 -159 -432
q0 -160 83 -305q81 -141 223 -223q136 -79 287 -79q152 0 288 79q144 84 223 223q83 146 83 315q0 280 -203 468q-166 152 -394 152zM786 -159q28 0 48 -20t20 -48t-20 -48.5t-49 -20.5q-27 0 -47.5 20.5t-20.5 48.5t20.5 48t48.5 20z" />
    <glyph glyph-name="uni1ECD" unicode="&#x1ecd;" horiz-adv-x="1086" 
d="M550 928q198 0 331 -150q121 -134 121 -323q0 -220 -154 -359q-128 -116 -304 -116q-204 0 -338 150q-121 136 -121 325q0 183 111 313q136 160 354 160zM537 848q-157 0 -267 -117q-97 -106 -97 -276q0 -195 124 -304q103 -91 246 -91q167 0 274 117q97 106 97 282
q0 189 -124 298q-101 91 -253 91zM544 -159q28 0 48 -20t20 -48t-20 -48.5t-49 -20.5q-27 0 -47.5 20.5t-20.5 48.5t20.5 48t48.5 20z" />
    <glyph glyph-name="uni1ECE" unicode="&#x1ece;" horiz-adv-x="1569" 
d="M784 1385q183 0 338 -93q162 -98 254 -259q93 -163 93 -351t-94 -351q-94 -166 -257 -260q-157 -91 -338 -91q-172 0 -329 91q-164 95 -257 260q-94 163 -94 362q0 183 93 340q100 167 255 259q158 93 336 93zM781 1301q-255 0 -431 -198q-159 -177 -159 -432
q0 -160 83 -305q81 -141 223 -223q136 -79 287 -79q152 0 288 79q144 84 223 223q83 146 83 315q0 280 -203 468q-166 152 -394 152zM681 1710l-24 58q51 16 100 16q71 0 113 -30.5t42 -82.5q0 -40 -26 -84l-29 -50q-12 -20 -15 -35h-77q0 14 9 27l6 10l8 12l12 18
q37 58 37 86q0 64 -96 64q-25 0 -60 -9z" />
    <glyph glyph-name="uni1ECF" unicode="&#x1ecf;" horiz-adv-x="1086" 
d="M550 928q198 0 331 -150q121 -134 121 -323q0 -220 -154 -359q-128 -116 -304 -116q-204 0 -338 150q-121 136 -121 325q0 183 111 313q136 160 354 160zM537 848q-157 0 -267 -117q-97 -106 -97 -276q0 -195 124 -304q103 -91 246 -91q167 0 274 117q97 106 97 282
q0 189 -124 298q-101 91 -253 91zM439 1295l-23 59q52 16 100 16q72 0 113.5 -30.5t41.5 -83.5q0 -39 -26 -83l-29 -50q-12 -20 -15 -35h-77q0 14 9 27l6 10l8 12l11 18q38 59 38 86q0 64 -95 64q-29 0 -62 -10z" />
    <glyph glyph-name="uni1ED0" unicode="&#x1ed0;" horiz-adv-x="1569" 
d="M739 1749h93l204 -224l-58 -28l-193 182l-193 -182l-57 28zM784 1385q183 0 338 -93q162 -98 254 -259q93 -163 93 -351t-94 -351q-94 -166 -257 -260q-157 -91 -338 -91q-172 0 -329 91q-164 95 -257 260q-94 163 -94 362q0 183 93 340q100 167 255 259q158 93 336 93z
M781 1301q-255 0 -431 -198q-159 -177 -159 -432q0 -160 83 -305q81 -141 223 -223q136 -79 287 -79q152 0 288 79q144 84 223 223q83 146 83 315q0 280 -203 468q-166 152 -394 152zM992 1610l-49 28l174 239l92 -49z" />
    <glyph glyph-name="uni1ED1" unicode="&#x1ed1;" horiz-adv-x="1086" 
d="M816 1297l-49 28l174 240l92 -50zM497 1305h93l204 -224l-57 -28l-194 182l-193 -182l-57 28zM550 928q198 0 331 -150q121 -134 121 -323q0 -220 -154 -359q-128 -116 -304 -116q-204 0 -338 150q-121 136 -121 325q0 183 111 313q136 160 354 160zM537 848
q-157 0 -267 -117q-97 -106 -97 -276q0 -195 124 -304q103 -91 246 -91q167 0 274 117q97 106 97 282q0 189 -124 298q-101 91 -253 91z" />
    <glyph glyph-name="uni1ED2" unicode="&#x1ed2;" horiz-adv-x="1569" 
d="M785 1679l-193 -182l-57 28l204 224h93l204 -224l-58 -28zM1013 1877l174 -239l-49 -28l-217 218zM784 1385q183 0 338 -93q162 -98 254 -259q93 -163 93 -351t-94 -351q-94 -166 -257 -260q-157 -91 -338 -91q-172 0 -329 91q-164 95 -257 260q-94 163 -94 362
q0 183 93 340q100 167 255 259q158 93 336 93zM781 1301q-255 0 -431 -198q-159 -177 -159 -432q0 -160 83 -305q81 -141 223 -223q136 -79 287 -79q152 0 288 79q144 84 223 223q83 146 83 315q0 280 -203 468q-166 152 -394 152z" />
    <glyph glyph-name="uni1ED3" unicode="&#x1ed3;" horiz-adv-x="1086" 
d="M683 1565l174 -240l-49 -28l-217 218zM543 1235l-193 -182l-57 28l204 224h93l204 -224l-57 -28zM550 928q198 0 331 -150q121 -134 121 -323q0 -220 -154 -359q-128 -116 -304 -116q-204 0 -338 150q-121 136 -121 325q0 183 111 313q136 160 354 160zM537 848
q-157 0 -267 -117q-97 -106 -97 -276q0 -195 124 -304q103 -91 246 -91q167 0 274 117q97 106 97 282q0 189 -124 298q-101 91 -253 91z" />
    <glyph glyph-name="uni1ED4" unicode="&#x1ed4;" horiz-adv-x="1569" 
d="M739 1749h93l204 -224l-58 -28l-193 182l-193 -182l-57 28zM784 1385q183 0 338 -93q162 -98 254 -259q93 -163 93 -351t-94 -351q-94 -166 -257 -260q-157 -91 -338 -91q-172 0 -329 91q-164 95 -257 260q-94 163 -94 362q0 183 93 340q100 167 255 259q158 93 336 93z
M781 1301q-255 0 -431 -198q-159 -177 -159 -432q0 -160 83 -305q81 -141 223 -223q136 -79 287 -79q152 0 288 79q144 84 223 223q83 146 83 315q0 280 -203 468q-166 152 -394 152zM996 1811l-24 58q52 16 100 16q72 0 113.5 -30.5t41.5 -83.5q0 -39 -26 -83l-29 -50
q-12 -20 -15 -35h-77q0 13 9 27l6 10l8 12l12 18q37 58 37 86q0 64 -95 64q-27 0 -61 -9z" />
    <glyph glyph-name="uni1ED5" unicode="&#x1ed5;" horiz-adv-x="1086" 
d="M497 1305h93l204 -224l-57 -28l-194 182l-193 -182l-57 28zM550 928q198 0 331 -150q121 -134 121 -323q0 -220 -154 -359q-128 -116 -304 -116q-204 0 -338 150q-121 136 -121 325q0 183 111 313q136 160 354 160zM537 848q-157 0 -267 -117q-97 -106 -97 -276
q0 -195 124 -304q103 -91 246 -91q167 0 274 117q97 106 97 282q0 189 -124 298q-101 91 -253 91zM692 1498l-23 58q52 16 100 16q71 0 113 -30.5t42 -82.5q0 -40 -26 -84l-29 -50q-12 -20 -15 -35h-77q0 14 9 27l6 10l8 12l12 18q37 59 37 85q0 65 -95 65q-28 0 -62 -9z
" />
    <glyph glyph-name="uni1ED6" unicode="&#x1ed6;" horiz-adv-x="1569" 
d="M785 1627l-193 -182l-57 28l204 224h93l204 -224l-58 -28zM784 1385q183 0 338 -93q162 -98 254 -259q93 -163 93 -351t-94 -351q-94 -166 -257 -260q-157 -91 -338 -91q-172 0 -329 91q-164 95 -257 260q-94 163 -94 362q0 183 93 340q100 167 255 259q158 93 336 93z
M781 1301q-255 0 -431 -198q-159 -177 -159 -432q0 -160 83 -305q81 -141 223 -223q136 -79 287 -79q152 0 288 79q144 84 223 223q83 146 83 315q0 280 -203 468q-166 152 -394 152zM601 1791l-66 15q29 128 132 128q45 0 133 -41q63 -29 102 -29q49 0 66 68l66 -16
q-22 -127 -132 -127q-54 0 -128 37q-67 33 -104 33q-48 0 -69 -68z" />
    <glyph glyph-name="uni1ED7" unicode="&#x1ed7;" horiz-adv-x="1086" 
d="M543 1235l-193 -182l-57 28l204 224h93l204 -224l-57 -28zM550 928q198 0 331 -150q121 -134 121 -323q0 -220 -154 -359q-128 -116 -304 -116q-204 0 -338 150q-121 136 -121 325q0 183 111 313q136 160 354 160zM537 848q-157 0 -267 -117q-97 -106 -97 -276
q0 -195 124 -304q103 -91 246 -91q167 0 274 117q97 106 97 282q0 189 -124 298q-101 91 -253 91zM360 1429l-66 16q28 127 132 127q45 0 132 -41q63 -29 102 -29q50 0 67 68l66 -16q-22 -127 -132 -127q-54 0 -128 37q-67 33 -104 33q-48 0 -69 -68z" />
    <glyph glyph-name="uni1ED8" unicode="&#x1ed8;" horiz-adv-x="1569" 
d="M785 1679l-193 -182l-57 28l204 224h93l204 -224l-58 -28zM784 1385q183 0 338 -93q162 -98 254 -259q93 -163 93 -351t-94 -351q-94 -166 -257 -260q-157 -91 -338 -91q-172 0 -329 91q-164 95 -257 260q-94 163 -94 362q0 183 93 340q100 167 255 259q158 93 336 93z
M781 1301q-255 0 -431 -198q-159 -177 -159 -432q0 -160 83 -305q81 -141 223 -223q136 -79 287 -79q152 0 288 79q144 84 223 223q83 146 83 315q0 280 -203 468q-166 152 -394 152zM785 -159q28 0 48 -20t20 -48t-20.5 -48.5t-48.5 -20.5q-27 0 -47.5 20.5t-20.5 48.5
t20.5 48t48.5 20z" />
    <glyph glyph-name="uni1ED9" unicode="&#x1ed9;" horiz-adv-x="1086" 
d="M543 1269l-193 -182l-57 28l204 224h93l204 -224l-57 -28zM550 928q198 0 331 -150q121 -134 121 -323q0 -220 -154 -359q-128 -116 -304 -116q-204 0 -338 150q-121 136 -121 325q0 183 111 313q136 160 354 160zM537 848q-157 0 -267 -117q-97 -106 -97 -276
q0 -195 124 -304q103 -91 246 -91q167 0 274 117q97 106 97 282q0 189 -124 298q-101 91 -253 91zM544 -159q28 0 48 -20t20 -48t-20 -48.5t-49 -20.5q-27 0 -47.5 20.5t-20.5 48.5t20.5 48t48.5 20z" />
    <glyph glyph-name="uni1EDA" unicode="&#x1eda;" horiz-adv-x="1555" 
d="M781 1497l-49 28l174 240l92 -50zM1298 1144q66 37 93.5 75t27.5 91q0 82 -72 152l63 32q86 -74 86 -183q0 -71 -34.5 -123.5t-115.5 -105.5q123 -180 123 -400q0 -189 -94 -352q-95 -165 -257 -259q-157 -91 -333 -91q-177 0 -334 91q-162 93 -257 260q-94 163 -94 351
t93 351q94 164 255 259q159 93 338 93q234 0 422 -153q45 -36 90 -88zM780 1301q-254 0 -431 -198q-159 -177 -159 -431q0 -161 83 -306q82 -141 223 -223q136 -79 288 -79t288 79q144 84 223 223q83 145 83 315q0 282 -203 468q-167 152 -395 152z" />
    <glyph glyph-name="uni1EDB" unicode="&#x1edb;" horiz-adv-x="1141" 
d="M510 1087l-49 28l174 240l92 -50zM932 709q85 58 85 145q0 81 -73 151l64 32q86 -75 86 -183q0 -124 -127 -214q35 -85 35 -182q0 -223 -154 -362q-128 -116 -305 -116q-203 0 -337 150q-121 136 -121 325q0 218 154 357q128 116 305 116q197 0 329 -141q33 -36 59 -78z
M537 848q-157 0 -267 -117q-97 -106 -97 -276q0 -195 124 -304q103 -91 246 -91q167 0 274 117q97 106 97 282q0 189 -124 298q-101 91 -253 91z" />
    <glyph glyph-name="uni1EDC" unicode="&#x1edc;" horiz-adv-x="1555" 
d="M664 1765l174 -240l-49 -28l-217 218zM1298 1144q66 37 93.5 75t27.5 91q0 82 -72 152l63 32q86 -74 86 -183q0 -71 -34.5 -123.5t-115.5 -105.5q123 -180 123 -400q0 -189 -94 -352q-95 -165 -257 -259q-157 -91 -333 -91q-177 0 -334 91q-162 93 -257 260
q-94 163 -94 351t93 351q94 164 255 259q159 93 338 93q234 0 422 -153q45 -36 90 -88zM780 1301q-254 0 -431 -198q-159 -177 -159 -431q0 -161 83 -306q82 -141 223 -223q136 -79 288 -79t288 79q144 84 223 223q83 145 83 315q0 282 -203 468q-167 152 -395 152z" />
    <glyph glyph-name="uni1EDD" unicode="&#x1edd;" horiz-adv-x="1141" 
d="M423 1355l174 -240l-49 -28l-217 218zM932 709q85 58 85 145q0 81 -73 151l64 32q86 -75 86 -183q0 -124 -127 -214q35 -85 35 -182q0 -223 -154 -362q-128 -116 -305 -116q-203 0 -337 150q-121 136 -121 325q0 218 154 357q128 116 305 116q197 0 329 -141
q33 -36 59 -78zM537 848q-157 0 -267 -117q-97 -106 -97 -276q0 -195 124 -304q103 -91 246 -91q167 0 274 117q97 106 97 282q0 189 -124 298q-101 91 -253 91z" />
    <glyph glyph-name="uni1EDE" unicode="&#x1ede;" horiz-adv-x="1555" 
d="M1298 1144q66 37 93.5 75t27.5 91q0 82 -72 152l63 32q86 -74 86 -183q0 -71 -34.5 -123.5t-115.5 -105.5q123 -180 123 -400q0 -189 -94 -352q-95 -165 -257 -259q-157 -91 -333 -91q-177 0 -334 91q-162 93 -257 260q-94 163 -94 351t93 351q94 164 255 259
q159 93 338 93q234 0 422 -153q45 -36 90 -88zM780 1301q-254 0 -431 -198q-159 -177 -159 -431q0 -161 83 -306q82 -141 223 -223q136 -79 288 -79t288 79q144 84 223 223q83 145 83 315q0 282 -203 468q-167 152 -395 152zM693 1710l-23 58q51 16 100 16q72 0 113.5 -30.5
t41.5 -83.5q0 -39 -26 -83l-29 -50q-12 -20 -15 -35h-78q2 14 10 27l6 10l8 12l11 18q38 61 38 86q0 64 -96 64q-26 0 -61 -9z" />
    <glyph glyph-name="uni1EDF" unicode="&#x1edf;" horiz-adv-x="1141" 
d="M932 709q85 58 85 145q0 81 -73 151l64 32q86 -75 86 -183q0 -124 -127 -214q35 -85 35 -182q0 -223 -154 -362q-128 -116 -305 -116q-203 0 -337 150q-121 136 -121 325q0 218 154 357q128 116 305 116q197 0 329 -141q33 -36 59 -78zM537 848q-157 0 -267 -117
q-97 -106 -97 -276q0 -195 124 -304q103 -91 246 -91q167 0 274 117q97 106 97 282q0 189 -124 298q-101 91 -253 91zM455 1295l-23 59q52 16 100 16q72 0 113.5 -30.5t41.5 -83.5q0 -39 -26 -83l-29 -50q-12 -20 -15 -35h-78q2 14 10 27l6 10l8 12l11 18q38 61 38 86
q0 64 -95 64q-29 0 -62 -10z" />
    <glyph glyph-name="uni1EE0" unicode="&#x1ee0;" horiz-adv-x="1555" 
d="M1298 1144q66 37 93.5 75t27.5 91q0 82 -72 152l63 32q86 -74 86 -183q0 -71 -34.5 -123.5t-115.5 -105.5q123 -180 123 -400q0 -189 -94 -352q-95 -165 -257 -259q-157 -91 -333 -91q-177 0 -334 91q-162 93 -257 260q-94 163 -94 351t93 351q94 164 255 259
q159 93 338 93q234 0 422 -153q45 -36 90 -88zM780 1301q-254 0 -431 -198q-159 -177 -159 -431q0 -161 83 -306q82 -141 223 -223q136 -79 288 -79t288 79q144 84 223 223q83 145 83 315q0 282 -203 468q-167 152 -395 152zM607 1549l-65 15q29 128 132 128q44 0 132 -41
q60 -28 102 -28q50 0 66 66l67 -15q-22 -127 -132 -127q-54 0 -128 37q-67 33 -105 33q-46 0 -69 -68z" />
    <glyph glyph-name="uni1EE1" unicode="&#x1ee1;" horiz-adv-x="1141" 
d="M932 709q85 58 85 145q0 81 -73 151l64 32q86 -75 86 -183q0 -124 -127 -214q35 -85 35 -182q0 -223 -154 -362q-128 -116 -305 -116q-203 0 -337 150q-121 136 -121 325q0 218 154 357q128 116 305 116q197 0 329 -141q33 -36 59 -78zM537 848q-157 0 -267 -117
q-97 -106 -97 -276q0 -195 124 -304q103 -91 246 -91q167 0 274 117q97 106 97 282q0 189 -124 298q-101 91 -253 91zM353 1139l-66 16q28 127 133 127q44 0 132 -41q59 -28 102 -28q50 0 66 67l66 -16q-22 -127 -132 -127q-54 0 -127 37q-68 33 -106 33q-47 0 -68 -68z" />
    <glyph glyph-name="uni1EE2" unicode="&#x1ee2;" horiz-adv-x="1555" 
d="M1298 1144q66 37 93.5 75t27.5 91q0 82 -72 152l63 32q86 -74 86 -183q0 -71 -34.5 -123.5t-115.5 -105.5q123 -180 123 -400q0 -189 -94 -352q-95 -165 -257 -259q-157 -91 -333 -91q-177 0 -334 91q-162 93 -257 260q-94 163 -94 351t93 351q94 164 255 259
q159 93 338 93q234 0 422 -153q45 -36 90 -88zM780 1301q-254 0 -431 -198q-159 -177 -159 -431q0 -161 83 -306q82 -141 223 -223q136 -79 288 -79t288 79q144 84 223 223q83 145 83 315q0 282 -203 468q-167 152 -395 152zM786 -159q28 0 48 -20t20 -48t-20 -48.5
t-49 -20.5q-27 0 -47.5 20.5t-20.5 48.5t20.5 48t48.5 20z" />
    <glyph glyph-name="uni1EE3" unicode="&#x1ee3;" horiz-adv-x="1141" 
d="M932 709q85 58 85 145q0 81 -73 151l64 32q86 -75 86 -183q0 -124 -127 -214q35 -85 35 -182q0 -223 -154 -362q-128 -116 -305 -116q-203 0 -337 150q-121 136 -121 325q0 218 154 357q128 116 305 116q197 0 329 -141q33 -36 59 -78zM537 848q-157 0 -267 -117
q-97 -106 -97 -276q0 -195 124 -304q103 -91 246 -91q167 0 274 117q97 106 97 282q0 189 -124 298q-101 91 -253 91zM544 -159q28 0 48 -20t20 -48t-20 -48.5t-49 -20.5q-27 0 -47.5 20.5t-20.5 48.5t20.5 48t48.5 20z" />
    <glyph glyph-name="uni1EE4" unicode="&#x1ee4;" horiz-adv-x="1299" 
d="M177 1365h90v-849q0 -109 11 -170t37 -107q40 -70 124 -119q98 -56 210 -56q153 0 266 96q68 58 92 132t24 224v849h90v-892q0 -170 -56 -268q-56 -96 -161 -157q-119 -68 -255 -68q-192 0 -329 121q-79 68 -110 153q-33 84 -33 219v892zM650 -159q28 0 48 -20t20 -48
t-20 -48.5t-49 -20.5q-27 0 -47.5 20.5t-20.5 48.5t20.5 48t48.5 20z" />
    <glyph glyph-name="uni1EE5" unicode="&#x1ee5;" horiz-adv-x="1044" 
d="M902 0h-85v148q-107 -168 -316 -168q-166 0 -266 109q-49 53 -70.5 129t-21.5 196v494h85v-476q0 -164 45 -246q32 -57 90 -88q67 -36 150 -36t153 36.5t104 97.5q47 83 47 258v454h85v-908zM516 -159q28 0 48 -20t20 -48t-20 -48.5t-49 -20.5q-27 0 -47.5 20.5
t-20.5 48.5t20.5 48t48.5 20z" />
    <glyph glyph-name="uni1EE6" unicode="&#x1ee6;" horiz-adv-x="1299" 
d="M177 1365h90v-849q0 -109 11 -170t37 -107q40 -70 124 -119q98 -56 210 -56q153 0 266 96q68 58 92 132t24 224v849h90v-892q0 -170 -56 -268q-56 -96 -161 -157q-119 -68 -255 -68q-192 0 -329 121q-79 68 -110 153q-33 84 -33 219v892zM545 1710l-23 58q51 16 100 16
q72 0 113.5 -30.5t41.5 -83.5q0 -39 -26 -83l-30 -50q-11 -21 -15 -35h-77q1 14 9 27l7 10l8 12l11 18q38 61 38 86q0 64 -96 64q-26 0 -61 -9z" />
    <glyph glyph-name="uni1EE7" unicode="&#x1ee7;" horiz-adv-x="1044" 
d="M902 0h-85v148q-107 -168 -316 -168q-166 0 -266 109q-49 53 -70.5 129t-21.5 196v494h85v-476q0 -164 45 -246q32 -57 90 -88q67 -36 150 -36t153 36.5t104 97.5q47 83 47 258v454h85v-908zM418 1295l-23 59q52 16 100 16q71 0 113 -30.5t42 -82.5q0 -40 -26 -84
l-29 -50q-12 -20 -15 -35h-77q0 14 9 27l6 10l8 12l12 18q37 59 37 85q0 65 -95 65q-29 0 -62 -10z" />
    <glyph glyph-name="uni1EE8" unicode="&#x1ee8;" horiz-adv-x="1349" 
d="M645 1497l-49 28l174 240l92 -50zM1121 1365v-227q73 44 102 81q28 37 28 92q0 81 -73 151l64 31q86 -72 86 -183q0 -79 -47 -138q-46 -58 -160 -119v-580q0 -170 -56 -268q-56 -96 -161 -157q-119 -68 -255 -68q-192 0 -329 121q-79 68 -110 153q-33 84 -33 219v892h90
v-849q0 -109 11 -170t37 -107q40 -70 124 -119q98 -56 210 -56q153 0 266 96q68 58 92 132t24 224v849h90z" />
    <glyph glyph-name="uni1EE9" unicode="&#x1ee9;" horiz-adv-x="1152" 
d="M508 1087l-49 28l174 240l92 -50zM902 908v-224q73 43 99 80q26 35 26 90q0 81 -73 151l64 31q86 -74 86 -184q0 -78 -48 -138.5t-154 -114.5v-599h-85v148q-107 -168 -316 -168q-166 0 -266 109q-49 53 -70.5 129t-21.5 196v494h85v-476q0 -164 45 -246q32 -57 90 -88
q67 -36 150 -36t153 36.5t104 97.5q47 83 47 258v454h85z" />
    <glyph glyph-name="uni1EEA" unicode="&#x1eea;" horiz-adv-x="1349" 
d="M528 1765l174 -240l-48 -28l-217 218zM1121 1365v-227q73 44 102 81q28 37 28 92q0 81 -73 151l64 31q86 -72 86 -183q0 -79 -47 -138q-46 -58 -160 -119v-580q0 -170 -56 -268q-56 -96 -161 -157q-119 -68 -255 -68q-192 0 -329 121q-79 68 -110 153q-33 84 -33 219v892
h90v-849q0 -109 11 -170t37 -107q40 -70 124 -119q98 -56 210 -56q153 0 266 96q68 58 92 132t24 224v849h90z" />
    <glyph glyph-name="uni1EEB" unicode="&#x1eeb;" horiz-adv-x="1152" 
d="M392 1355l174 -240l-49 -28l-217 218zM902 908v-224q73 43 99 80q26 35 26 90q0 81 -73 151l64 31q86 -74 86 -184q0 -78 -48 -138.5t-154 -114.5v-599h-85v148q-107 -168 -316 -168q-166 0 -266 109q-49 53 -70.5 129t-21.5 196v494h85v-476q0 -164 45 -246
q32 -57 90 -88q67 -36 150 -36t153 36.5t104 97.5q47 83 47 258v454h85z" />
    <glyph glyph-name="uni1EEC" unicode="&#x1eec;" horiz-adv-x="1349" 
d="M1121 1365v-227q73 44 102 81q28 37 28 92q0 81 -73 151l64 31q86 -72 86 -183q0 -79 -47 -138q-46 -58 -160 -119v-580q0 -170 -56 -268q-56 -96 -161 -157q-119 -68 -255 -68q-192 0 -329 121q-79 68 -110 153q-33 84 -33 219v892h90v-849q0 -109 11 -170t37 -107
q40 -70 124 -119q98 -56 210 -56q153 0 266 96q68 58 92 132t24 224v849h90zM565 1710l-23 58q51 16 100 16q71 0 113 -30.5t42 -82.5q0 -40 -26 -84l-30 -50q-11 -21 -15 -35h-77q1 14 9 27l7 10l7 12l12 18q38 61 38 86q0 64 -96 64q-26 0 -61 -9z" />
    <glyph glyph-name="uni1EED" unicode="&#x1eed;" horiz-adv-x="1152" 
d="M902 908v-224q73 43 99 80q26 35 26 90q0 81 -73 151l64 31q86 -74 86 -184q0 -78 -48 -138.5t-154 -114.5v-599h-85v148q-107 -168 -316 -168q-166 0 -266 109q-49 53 -70.5 129t-21.5 196v494h85v-476q0 -164 45 -246q32 -57 90 -88q67 -36 150 -36t153 36.5t104 97.5
q47 83 47 258v454h85zM419 1295l-23 59q52 16 100 16q71 0 113 -30.5t42 -82.5q0 -40 -26 -84l-29 -50q-12 -19 -15 -35h-77q0 14 9 27l6 10l8 12l12 18q37 59 37 85q0 65 -95 65q-29 0 -62 -10z" />
    <glyph glyph-name="uni1EEE" unicode="&#x1eee;" horiz-adv-x="1349" 
d="M1121 1365v-227q73 44 102 81q28 37 28 92q0 81 -73 151l64 31q86 -72 86 -183q0 -79 -47 -138q-46 -58 -160 -119v-580q0 -170 -56 -268q-56 -96 -161 -157q-119 -68 -255 -68q-192 0 -329 121q-79 68 -110 153q-33 84 -33 219v892h90v-849q0 -109 11 -170t37 -107
q40 -70 124 -119q98 -56 210 -56q153 0 266 96q68 58 92 132t24 224v849h90zM472 1549l-66 15q29 128 132 128q44 0 132 -41q60 -28 103 -28q49 0 66 66l66 -15q-22 -127 -132 -127q-54 0 -128 37q-67 33 -105 33q-47 0 -68 -68z" />
    <glyph glyph-name="uni1EEF" unicode="&#x1eef;" horiz-adv-x="1152" 
d="M902 908v-224q73 43 99 80q26 35 26 90q0 81 -73 151l64 31q86 -74 86 -184q0 -78 -48 -138.5t-154 -114.5v-599h-85v148q-107 -168 -316 -168q-166 0 -266 109q-49 53 -70.5 129t-21.5 196v494h85v-476q0 -164 45 -246q32 -57 90 -88q67 -36 150 -36t153 36.5t104 97.5
q47 83 47 258v454h85zM339 1139l-65 16q27 127 132 127q44 0 132 -41q60 -28 102 -28q50 0 66 67l66 -16q-22 -127 -131 -127q-54 0 -128 37q-67 33 -105 33q-48 0 -69 -68z" />
    <glyph glyph-name="uni1EF0" unicode="&#x1ef0;" horiz-adv-x="1349" 
d="M1121 1365v-227q73 44 102 81q28 37 28 92q0 81 -73 151l64 31q86 -72 86 -183q0 -79 -47 -138q-46 -58 -160 -119v-580q0 -170 -56 -268q-56 -96 -161 -157q-119 -68 -255 -68q-192 0 -329 121q-79 68 -110 153q-33 84 -33 219v892h90v-849q0 -109 11 -170t37 -107
q40 -70 124 -119q98 -56 210 -56q153 0 266 96q68 58 92 132t24 224v849h90zM650 -159q28 0 48 -20t20 -48t-20 -48.5t-49 -20.5q-27 0 -47.5 20.5t-20.5 47.5q0 29 20 49t49 20z" />
    <glyph glyph-name="uni1EF1" unicode="&#x1ef1;" horiz-adv-x="1152" 
d="M902 908v-224q73 43 99 80q26 35 26 90q0 81 -73 151l64 31q86 -74 86 -184q0 -78 -48 -138.5t-154 -114.5v-599h-85v148q-107 -168 -316 -168q-166 0 -266 109q-49 53 -70.5 129t-21.5 196v494h85v-476q0 -164 45 -246q32 -57 90 -88q67 -36 150 -36t153 36.5t104 97.5
q47 83 47 258v454h85zM512 -159q27 0 47 -20t20 -48t-20 -48.5t-49 -20.5q-27 0 -47.5 20.5t-20.5 47.5q0 29 20 49t50 20z" />
    <glyph glyph-name="Ygrave" unicode="&#x1ef2;" horiz-adv-x="990" 
d="M388 1765l174 -240l-48 -28l-217 218zM450 0v573l-436 792h97l384 -708l385 708h97l-437 -792v-573h-90z" />
    <glyph glyph-name="ygrave" unicode="&#x1ef3;" horiz-adv-x="877" 
d="M331 1355l174 -240l-48 -28l-217 218zM173 -478l215 501l-373 885h94l324 -782l335 782h94l-602 -1386h-87z" />
    <glyph glyph-name="uni1EF4" unicode="&#x1ef4;" horiz-adv-x="990" 
d="M450 0v573l-436 792h97l384 -708l385 708h97l-437 -792v-573h-90zM497 -159q27 0 47 -20t20 -48t-20 -48.5t-49 -20.5q-27 0 -47.5 20.5t-20.5 48.5t20.5 48t49.5 20z" />
    <glyph glyph-name="uni1EF5" unicode="&#x1ef5;" horiz-adv-x="877" 
d="M173 -478l215 501l-373 885h94l324 -782l335 782h94l-602 -1386h-87zM646 -159q27 0 47 -20t20 -48t-20 -48.5t-49 -20.5q-28 0 -48 20.5t-20 48.5t20.5 48t49.5 20z" />
    <glyph glyph-name="uni1EF6" unicode="&#x1ef6;" horiz-adv-x="990" 
d="M450 0v573l-436 792h97l384 -708l385 708h97l-437 -792v-573h-90zM391 1710l-23 58q51 16 100 16q71 0 113 -30.5t42 -82.5q0 -40 -26 -84l-30 -50q-11 -21 -15 -35h-77q1 14 9 27l7 10l8 12l11 18q38 61 38 86q0 64 -96 64q-26 0 -61 -9z" />
    <glyph glyph-name="uni1EF7" unicode="&#x1ef7;" horiz-adv-x="877" 
d="M173 -478l215 501l-373 885h94l324 -782l335 782h94l-602 -1386h-87zM334 1295l-23 59q52 16 100 16q71 0 113 -30.5t42 -82.5q0 -40 -26 -84l-30 -50q-10 -19 -15 -35h-77q2 14 9 27l7 10l8 12l11 18q38 61 38 85q0 65 -95 65q-29 0 -62 -10z" />
    <glyph glyph-name="uni1EF8" unicode="&#x1ef8;" horiz-adv-x="990" 
d="M450 0v573l-436 792h97l384 -708l385 708h97l-437 -792v-573h-90zM312 1549l-66 15q29 128 132 128q44 0 132 -41q60 -28 102 -28q50 0 67 66l66 -15q-22 -127 -132 -127q-54 0 -128 37q-67 33 -105 33q-47 0 -68 -68z" />
    <glyph glyph-name="uni1EF9" unicode="&#x1ef9;" horiz-adv-x="877" 
d="M173 -478l215 501l-373 885h94l324 -782l335 782h94l-602 -1386h-87zM254 1139l-65 16q28 127 132 127q44 0 132 -41q60 -28 102 -28q51 0 66 67l67 -16q-22 -127 -132 -127q-54 0 -128 37q-68 33 -105 33q-46 0 -69 -68z" />
    <glyph glyph-name="uni2002" unicode="&#x2002;" horiz-adv-x="1065" 
 />
    <glyph glyph-name="uni2003" unicode="&#x2003;" horiz-adv-x="2089" 
 />
    <glyph glyph-name="uni2004" unicode="&#x2004;" horiz-adv-x="724" 
 />
    <glyph glyph-name="uni2005" unicode="&#x2005;" horiz-adv-x="553" 
 />
    <glyph glyph-name="uni2006" unicode="&#x2006;" horiz-adv-x="177" 
 />
    <glyph glyph-name="uni2007" unicode="&#x2007;" horiz-adv-x="1180" 
 />
    <glyph glyph-name="uni2009" unicode="&#x2009;" horiz-adv-x="297" 
 />
    <glyph glyph-name="uni200A" unicode="&#x200a;" horiz-adv-x="109" 
 />
    <glyph glyph-name="uni2011" unicode="&#x2011;" horiz-adv-x="495" 
d="M89 433v76h317v-76h-317z" />
    <glyph glyph-name="figuredash" unicode="&#x2012;" horiz-adv-x="1132" 
d="M253 433v76h627v-76h-627z" />
    <glyph glyph-name="endash" unicode="&#x2013;" horiz-adv-x="1132" 
d="M253 433v76h627v-76h-627z" />
    <glyph glyph-name="emdash" unicode="&#x2014;" horiz-adv-x="1237" 
d="M89 433v76h1059v-76h-1059z" />
    <glyph glyph-name="afii00208" unicode="&#x2015;" horiz-adv-x="1237" 
d="M89 433v76h1059v-76h-1059z" />
    <glyph glyph-name="underscoredbl" unicode="&#x2017;" horiz-adv-x="989" 
d="M14 -228v63h962v-63h-962zM14 -420v63h962v-63h-962z" />
    <glyph glyph-name="quoteleft" unicode="&#x2018;" horiz-adv-x="498" 
d="M314 1416l55 -23l-154 -433l-85 30z" />
    <glyph glyph-name="quoteright" unicode="&#x2019;" horiz-adv-x="430" 
d="M138 960l-55 22l154 434l85 -31z" />
    <glyph glyph-name="quotesinglbase" unicode="&#x201a;" horiz-adv-x="430" 
d="M138 -294l-55 22l154 434l85 -31z" />
    <glyph glyph-name="quotereversed" unicode="&#x201b;" horiz-adv-x="430" 
d="M194 1416l154 -434l-55 -22l-184 425z" />
    <glyph glyph-name="quotedblleft" unicode="&#x201c;" horiz-adv-x="798" 
d="M314 1417l55 -22l-154 -434l-85 31zM613 1417l56 -22l-155 -434l-84 31z" />
    <glyph glyph-name="quotedblright" unicode="&#x201d;" horiz-adv-x="798" 
d="M485 960l-55 22l154 434l85 -31zM185 960l-55 22l154 434l85 -31z" />
    <glyph glyph-name="quotedblbase" unicode="&#x201e;" horiz-adv-x="798" 
d="M185 -294l-55 22l154 434l85 -31zM485 -294l-55 22l154 434l85 -31z" />
    <glyph glyph-name="dagger" unicode="&#x2020;" horiz-adv-x="1110" 
d="M511 887v474h88v-474h316v-83h-316v-1181h-88v1181h-316v83h316z" />
    <glyph glyph-name="daggerdbl" unicode="&#x2021;" horiz-adv-x="1110" 
d="M195 887h316v474h88v-474h316v-83h-316v-623h316v-83h-316v-475h-88v475h-316v83h316v623h-316v83z" />
    <glyph glyph-name="bullet" unicode="&#x2022;" horiz-adv-x="956" 
d="M481 942q112 0 189 -86q67 -73 67 -173q0 -116 -86 -193q-73 -67 -173 -67q-116 0 -193 86q-67 73 -67 173q0 97 61 167q79 93 202 93z" />
    <glyph glyph-name="ellipsis" unicode="&#x2026;" horiz-adv-x="1489" 
d="M236 121q27 0 47 -20t20 -48t-20 -48.5t-48 -20.5q-27 0 -47.5 20.5t-20.5 48.5t20 48t49 20zM745 121q27 0 47 -20t20 -48t-20 -48.5t-48 -20.5q-27 0 -47.5 20.5t-20.5 48.5t20 48t49 20zM1255 121q27 0 47 -20t20 -48t-20 -48.5t-48 -20.5q-27 0 -47.5 20.5
t-20.5 48.5t20 48t49 20z" />
    <glyph glyph-name="perthousand" unicode="&#x2030;" horiz-adv-x="2589" 
d="M1426 822q158 0 233.5 -102t75.5 -315q0 -416 -306 -416q-155 0 -225 100q-77 110 -77 322q0 411 299 411zM1431 750q-225 0 -225 -351q0 -95 24 -174q24 -81 63 -115q55 -49 138 -49q225 0 225 342q0 347 -225 347zM508 21l783 1353l52 -30l-783 -1354zM416 1377
q157 0 232.5 -102t75.5 -314q0 -416 -303 -416q-156 0 -230.5 103.5t-74.5 317.5q0 411 300 411zM420 1305q-225 0 -225 -351q0 -94 24 -174t63 -114q55 -49 138 -49q225 0 225 342q0 346 -225 346zM2165 822q157 0 232.5 -102t75.5 -315q0 -416 -303 -416
q-155 0 -230 103.5t-75 318.5q0 411 300 411zM2169 750q-225 0 -225 -351q0 -95 24 -175t63 -114q55 -49 138 -49q225 0 225 342q0 347 -225 347z" />
    <glyph glyph-name="minute" unicode="&#x2032;" horiz-adv-x="314" 
d="M-55 960l-55 22l154 434l85 -31z" />
    <glyph glyph-name="second" unicode="&#x2033;" horiz-adv-x="614" 
d="M300 960l-55 22l154 434l85 -31zM0 960l-55 22l154 434l85 -31z" />
    <glyph glyph-name="guilsinglleft" unicode="&#x2039;" horiz-adv-x="535" 
d="M178 454l240 -296l-54 -43l-275 339l276 347l53 -43z" />
    <glyph glyph-name="guilsinglright" unicode="&#x203a;" horiz-adv-x="535" 
d="M171 115l-54 43l240 296l-240 304l54 43l275 -347z" />
    <glyph glyph-name="uni203E" unicode="&#x203e;" horiz-adv-x="989" 
d="M14 1599v73h962v-73h-962z" />
    <glyph glyph-name="slash.aalt" unicode="&#x2044;" horiz-adv-x="357" 
d="M-239 21l783 1353l52 -30l-783 -1354z" />
    <glyph glyph-name="zerosuperior" unicode="&#x2070;" 
d="M391 1654q158 0 233.5 -102t75.5 -315q0 -416 -306 -416q-302 0 -302 422q0 411 299 411zM395 1582q-224 0 -224 -351q0 -95 24 -174q24 -81 63 -115q55 -49 139 -49q224 0 224 348q0 341 -226 341z" />
    <glyph glyph-name="foursuperior" unicode="&#x2074;" 
d="M465 1652l65 -39l-331 -528h290v216h78v-216h104v-72h-104v-182h-78v182h-380v71z" />
    <glyph glyph-name="fivesuperior" unicode="&#x2075;" 
d="M310 1570l-47 -227q57 19 106 19q127 0 210 -90q67 -73 67 -178q0 -123 -89 -204q-77 -69 -191 -69q-162 0 -252 137l63 43q23 -49 74 -78t114 -29q99 0 153 62q50 58 50 135q0 90 -64 147q-59 53 -141 53q-78 0 -137 -52l-62 12l81 391h359v-72h-294z" />
    <glyph glyph-name="sixsuperior" unicode="&#x2076;" 
d="M454 1652l61 -44l-195 -267q40 10 75 10q132 0 213 -88q64 -70 64 -169q0 -120 -91 -202q-79 -71 -187 -71q-127 0 -210 92q-70 76 -70 181q0 95 64 181zM394 1281q-94 0 -154 -65q-48 -52 -48 -126q0 -87 65 -146q57 -51 137 -51q92 0 150 66q50 56 50 135q0 81 -61 136
q-57 51 -139 51z" />
    <glyph glyph-name="sevensuperior" unicode="&#x2077;" 
d="M267 822l-69 36l392 711h-434v72h523v-64z" />
    <glyph glyph-name="eightsuperior" unicode="&#x2078;" 
d="M255 1263q-94 72 -94 175q0 93 70 157q65 59 165 59q115 0 181 -74q54 -62 54 -142q0 -103 -95 -175q123 -79 123 -205q0 -105 -75 -171t-188 -66q-128 0 -205 83q-58 62 -58 155q0 124 122 204zM393 1222q-91 0 -141 -57q-42 -47 -42 -107q0 -72 53 -119q49 -46 133 -46
q92 0 145 57q41 47 41 109q0 71 -53 118q-53 45 -136 45zM394 1583q-68 0 -114 -41q-45 -42 -45 -106q0 -61 47 -102t114 -41q68 0 115 42q46 40 46 104q0 62 -46 104q-44 40 -117 40z" />
    <glyph glyph-name="ninesuperior" unicode="&#x2079;" 
d="M338 822l-61 44l197 270q-44 -9 -75 -9q-137 0 -215 87q-64 70 -64 167q0 120 91 202q79 71 188 71q128 0 210 -91q69 -77 69 -181q0 -96 -64 -182zM398 1582q-91 0 -151 -66q-50 -56 -50 -135q0 -81 58 -133q56 -51 142 -51q98 0 157 65q47 53 47 125q0 85 -65 144
q-56 51 -138 51z" />
    <glyph glyph-name="zeroinferior" unicode="&#x2080;" 
d="M391 557q158 0 233.5 -102t75.5 -315q0 -183 -60 -289q-72 -127 -248 -127q-300 0 -300 422q0 411 299 411zM395 485q-93 0 -151 -63q-33 -40 -52 -113q-21 -77 -21 -164q0 -349 224 -349q226 0 226 348q0 341 -226 341z" />
    <glyph glyph-name="oneinferior" unicode="&#x2081;" 
d="M467 545v-810h-78v724l-137 -76l-38 62l178 100h75z" />
    <glyph glyph-name="twoinferior" unicode="&#x2082;" 
d="M654 -265h-510v72l309 328q103 109 103 197q0 68 -49 111q-46 42 -119 42q-68 0 -109.5 -33.5t-65.5 -108.5l-72 20q20 72 56 111q72 83 195 83q116 0 184 -75q57 -64 57 -150q0 -113 -117 -236l-271 -289h409v-72z" />
    <glyph glyph-name="threeinferior" unicode="&#x2083;" 
d="M134 -99l-3 9l75 20q21 -57 47 -86q44 -47 130 -47q92 0 140 54q41 47 41 112q0 73 -45.5 117.5t-121.5 44.5h-49v70h51q61 0 105 42q42 42 42 103q0 65 -44.5 105t-115.5 40q-91 0 -155 -82l-65 36q1 2 6 8t9 11q73 99 207 99q117 0 181 -73q53 -59 53 -141
q0 -115 -91 -178q110 -68 110 -200q0 -111 -76 -178q-71 -63 -181 -63q-93 0 -158.5 46.5t-91.5 130.5z" />
    <glyph glyph-name="fourinferior" unicode="&#x2084;" 
d="M465 556l65 -39l-331 -529h290v217h78v-217h104v-72h-104v-181h-78v181h-380v70z" />
    <glyph glyph-name="fiveinferior" unicode="&#x2085;" 
d="M310 473l-47 -226q56 19 106 19q127 0 210 -90q67 -73 67 -178q0 -123 -89 -204q-77 -69 -191 -69q-162 0 -252 136l63 43q24 -49 74.5 -77.5t113.5 -28.5q101 0 153 61q50 59 50 136q0 90 -64 147q-59 53 -141 53q-78 0 -137 -52l-62 12l81 390h359v-72h-294z" />
    <glyph glyph-name="sixinferior" unicode="&#x2086;" 
d="M454 556l61 -45l-195 -266q40 9 75 9q134 0 213 -88q64 -70 64 -169q0 -120 -91 -202q-79 -71 -187 -71q-127 0 -210 92q-70 76 -70 181q0 95 64 181zM394 184q-94 0 -154 -65q-48 -53 -48 -126q0 -87 65 -146q57 -51 137 -51q92 0 150 66q50 56 50 135q0 81 -61 136
q-57 51 -139 51z" />
    <glyph glyph-name="seveninferior" unicode="&#x2087;" 
d="M267 -274l-69 35l392 712h-434v72h523v-64z" />
    <glyph glyph-name="eightinferior" unicode="&#x2088;" 
d="M255 166q-94 72 -94 175q0 93 70 157q65 59 165 59q115 0 181 -74q54 -61 54 -142q0 -103 -95 -175q123 -79 123 -205q0 -105 -75 -171q-76 -66 -188 -66q-128 0 -205 83q-58 62 -58 154q0 125 122 205zM395 124q-75 0 -125 -39q-60 -46 -60 -125q0 -71 53 -118
q50 -46 133 -46q92 0 145 57q41 47 41 108q0 71 -52 117t-135 46zM394 486q-68 0 -114 -41q-45 -42 -45 -106q0 -61 47 -102q46 -42 114 -42t115 42q46 40 46 104q0 63 -46 105q-44 40 -117 40z" />
    <glyph glyph-name="nineinferior" unicode="&#x2089;" 
d="M338 -275l-61 44l197 270q-41 -10 -75 -10q-135 0 -215 87q-64 70 -64 168q0 120 91 202q79 71 188 71q128 0 210 -91q69 -77 69 -181q0 -97 -64 -183zM398 485q-91 0 -151 -66q-50 -56 -50 -134q0 -76 50 -128q55 -58 151 -58t156 65q47 53 47 125q0 87 -64 145
q-57 51 -139 51z" />
    <glyph glyph-name="franc" unicode="&#x20a3;" horiz-adv-x="1347" 
d="M797 0v763h85v-148q92 149 279 149q14 0 21 -1v-78q-11 1 -22 1q-75 0 -137.5 -33.5t-94.5 -90.5q-26 -48 -36 -105q-10 -54 -10 -159v-298h-85zM872 1365v-82h-523v-549h379v-83h-379v-651h-90v1365h613z" />
    <glyph glyph-name="lira" unicode="&#x20a4;" horiz-adv-x="1136" 
d="M815 786h-445l5 -27q11 -54 33 -159l5 -21h402v-78h-388q11 -66 11 -119q0 -68 -22 -121t-74 -113q-27 -32 -66 -66h743v-82h-852v97q58 47 95 84q88 89 88 201q0 48 -11 119h-172v78h157q-38 178 -43 207h-114v78h102q-6 65 -6 106q0 216 122 320q112 95 264 95
q197 0 316 -179l-71 -47q-100 144 -251 144q-131 0 -217 -90q-77 -83 -77 -243q0 -39 8 -106h458v-78z" />
    <glyph glyph-name="peseta" unicode="&#x20a7;" horiz-adv-x="1233" 
d="M304 0v938h-120v75h120v352h257q150 0 232 -32q197 -77 222 -320h122v-75h-122q-20 -184 -134 -276q-56 -44 -130 -64q-72 -19 -190 -19h-167v-579h-90zM926 938h-532v-277h186q318 0 346 277zM394 1283v-270h531q-35 273 -345 270h-186z" />
    <glyph glyph-name="uni20AB" unicode="&#x20ab;" horiz-adv-x="1164" 
d="M650 1092v79h253v194h85v-194h128v-79h-128v-1092h-85v179q-138 -199 -362 -199q-201 0 -335 150q-121 134 -121 325q0 218 154 357q128 116 302 116q223 0 362 -198v362h-253zM536 849q-157 0 -266 -117q-97 -106 -97 -277q0 -194 124 -303q104 -92 245 -92
q163 0 266 115q97 106 97 287q0 188 -123 298q-100 89 -246 89zM95 -237v73h1008v-73h-1008z" />
    <glyph glyph-name="Euro" unicode="&#x20ac;" horiz-adv-x="1613" 
d="M1323 865l-32 -80h-878q-8 -54 -8 -102q0 -47 8 -103h797l-32 -80h-747q37 -128 123 -229q86 -100 203 -153q117 -54 247 -54q112 0 201 37q90 38 199 127v-111q-173 -137 -398 -137q-238 0 -423 145q-186 145 -245 375h-188l32 80h140q-8 45 -8 97q0 55 8 108h-172
l32 80h157q37 153 145 279q205 241 523 241q253 0 449 -184l-33 -82q-196 182 -424 182q-199 0 -355 -120t-213 -316h892z" />
    <glyph glyph-name="uni20B4" unicode="&#x20b4;" horiz-adv-x="1238" 
d="M264 501h-80v78h128q45 49 111 87q63 35 218 96q25 10 51 24h-508v78h647q80 71 80 171q0 114 -88 195q-79 73 -200 73q-157 0 -265 -143l-71 46q125 179 330 179q87 0 165.5 -32t130.5 -89q86 -95 86 -230q0 -94 -52 -170h106v-78h-180q-63 -46 -144 -78l-133 -53
q-97 -38 -144 -76h601v-78h-689q-36 -56 -36 -128q0 -135 103 -228q88 -81 217 -81q115 0 194.5 63.5t116.5 184.5l87 -25q-33 -113 -99 -183q-115 -124 -295 -124q-193 0 -313 134q-101 112 -101 260q0 66 26 127z" />
    <glyph glyph-name="uni2101" unicode="&#x2101;" horiz-adv-x="1948" 
d="M869 665l-45 -77l-82 202h-414l-96 -234h-75l335 809h86zM354 856h361l-180 441zM1752 704l-57 -35q-67 85 -161 85q-82 0 -129 -53q-37 -40 -37 -93q0 -90 133 -139l84 -32q100 -38 146.5 -88t46.5 -121q0 -101 -77 -172q-73 -66 -184 -66q-94 0 -159.5 49.5
t-91.5 142.5l71 19q43 -145 182 -145q88 0 142 60q44 49 44 111q0 51 -36.5 86.5t-121.5 67.5l-81 30q-170 63 -170 196q0 92 68 151q68 61 173 61q134 0 215 -115zM654 21l783 1353l52 -30l-783 -1354z" />
    <glyph glyph-name="afii61248" unicode="&#x2105;" horiz-adv-x="2181" 
d="M880 1255l-49 -47q-107 101 -244 101q-163 0 -267 -116q-89 -100 -89 -233q0 -154 113 -256q103 -92 243 -92q133 0 248 104l49 -47q-130 -123 -296 -123q-198 0 -325 141q-106 118 -106 273q0 180 138 305q122 110 292 110q163 0 293 -120zM1597 819q190 0 320 -142
q107 -119 107 -273q0 -180 -138 -303q-124 -111 -292 -111q-112 0 -213 59q-101 57 -156 154q-54 95 -54 207q0 172 139 298q122 111 287 111zM1595 753q-154 0 -261 -116q-89 -100 -89 -239q0 -147 113 -249q104 -93 239 -93q158 0 266 119q87 97 87 229q0 153 -115 258
q-100 91 -240 91zM671 21l783 1353l52 -30l-783 -1354z" />
    <glyph glyph-name="uni2117" unicode="&#x2117;" horiz-adv-x="1782" 
d="M670 222v921h206q132 0 201 -39q56 -31 90 -91q38 -67 38 -143q0 -155 -123 -227q-71 -41 -206 -41h-127v-380h-79zM749 1070v-395h140q237 0 237 196q0 97 -60.5 148t-176.5 51h-140zM901 1457q201 0 377 -104q179 -105 284 -283q104 -179 104 -387q0 -207 -104 -388
q-103 -179 -284 -283t-388 -104q-208 0 -386 103q-181 104 -284 282q-104 179 -104 384q0 206 104 391q132 235 394 337q131 52 287 52zM880 1388q-181 0 -342 -95q-163 -97 -258 -260q-95 -164 -95 -353q0 -188 95 -352q94 -162 258 -257q163 -94 353 -94q187 0 353 95
q164 94 259 258q94 163 94 358q0 305 -234 518q-200 182 -483 182z" />
    <glyph glyph-name="trademark" unicode="&#x2122;" horiz-adv-x="1446" 
d="M709 738h-61v640h71l252 -430l252 430h72v-640h-61v546l-233 -399h-60l-232 399v-546zM566 1324h-177v-585h-61v585h-178v54h416v-54z" />
    <glyph glyph-name="Omega" unicode="&#x2126;" horiz-adv-x="1649" 
d="M1015 0v202q152 56 246 148q161 161 161 385q0 146 -73 273q-76 131 -213 211q-142 82 -312 82q-169 0 -311 -82q-137 -80 -213 -211q-73 -127 -73 -273q0 -225 162 -386q94 -93 245 -147v-202h-462v84h373v60q-142 64 -236 164q-172 184 -172 427q0 163 84 309
q89 153 248 245q165 96 355 96t356 -96q159 -90 248 -245q84 -146 84 -309q0 -191 -109 -348q-110 -158 -299 -243v-60h373v-84h-462z" />
    <glyph glyph-name="estimated" unicode="&#x212e;" horiz-adv-x="1527" 
d="M1370 681h-1051v-317q46 -118 82 -164q119 -152 372 -152q168 0 291 72.5t190 212.5h63q-53 -131 -131 -205q-154 -148 -413 -148q-365 0 -522 279q-94 164 -94 413q0 310 141 491q173 222 478 222q203 0 357 -107q179 -125 220 -376q16 -92 17 -221zM319 738h911v282
q-37 94 -104 161q-133 136 -359 136q-120 0 -207 -38t-155 -120q-31 -37 -86 -137v-284z" />
    <glyph glyph-name="onethird" unicode="&#x2153;" horiz-adv-x="1707" 
d="M344 23l783 1354l52 -30l-783 -1354zM1019 166l-3 10l75 20q21 -58 47 -87q44 -47 130 -47q92 0 140 54q41 47 41 112q0 73 -45.5 117.5t-121.5 44.5h-49v71h51q62 0 105 42q42 41 42 102q0 65 -44.5 105t-115.5 40q-91 0 -155 -82l-65 36q1 2 6 8.5t9 10.5q74 99 207 99
q117 0 181 -73q53 -59 53 -141q0 -114 -91 -178q110 -68 110 -199q0 -112 -76 -179q-70 -63 -180 -63q-94 0 -159 46t-92 131zM391 1365v-810h-78v724l-137 -76l-38 62l178 100h75z" />
    <glyph glyph-name="twothirds" unicode="&#x2154;" horiz-adv-x="1707" 
d="M442 21l783 1353l52 -30l-783 -1354zM1020 166l-2 10l75 20q21 -58 47 -87q44 -47 130 -47q92 0 140 54q41 47 41 112q0 73 -46 117.5t-121 44.5h-49v71h50q63 0 106 42q42 41 42 102q0 65 -44.5 105t-115.5 40q-92 0 -156 -82l-64 36q12 16 14 19q73 99 207 99
q118 0 182 -73q53 -59 53 -141q0 -114 -91 -178q110 -68 110 -199q0 -112 -76 -179q-70 -63 -181 -63q-93 0 -158.5 46t-92.5 131zM635 555h-510v72l309 328q103 109 103 197q0 67 -49 110q-46 42 -119 42q-68 0 -109.5 -33.5t-65.5 -107.5l-72 20q20 71 56 111
q72 82 195 82q117 0 184 -75q57 -63 57 -150q0 -111 -117 -236l-271 -288h409v-72z" />
    <glyph glyph-name="onefifth" unicode="&#x2155;" horiz-adv-x="1707" 
d="M343 21l783 1353l52 -30l-783 -1354zM1170 738l-47 -226q56 19 107 19q128 0 210 -90q67 -73 67 -178q0 -122 -89 -205q-76 -69 -191 -69q-158 0 -253 137l63 43q24 -49 75 -78t114 -29q99 0 153 62q50 59 50 136q0 89 -64 147q-59 53 -141 53q-79 0 -137 -52l-62 12
l81 390h359v-72h-295zM390 1365v-810h-78v724l-137 -76l-38 62l178 100h75z" />
    <glyph glyph-name="twofifth" unicode="&#x2156;" horiz-adv-x="1707" 
d="M449 17l783 1353l52 -30l-783 -1354zM1173 738l-47 -226q56 19 106 19q128 0 210 -90q68 -74 68 -178q0 -124 -90 -205q-76 -69 -190 -69q-160 0 -253 137l63 43q23 -49 74.5 -78t114.5 -29q99 0 152 62q51 59 51 136q0 88 -65 147q-59 53 -140 53q-79 0 -138 -52l-61 12
l81 390h359v-72h-295zM634 555h-510v72l309 328q103 109 103 197q0 67 -49 110q-46 42 -119 42q-68 0 -109.5 -33.5t-65.5 -107.5l-72 20q20 71 56 111q72 82 195 82q116 0 184 -75q57 -63 57 -150q0 -111 -117 -236l-271 -288h409v-72z" />
    <glyph glyph-name="threefifth" unicode="&#x2157;" horiz-adv-x="1707" 
d="M405 21l783 1353l52 -30l-783 -1354zM1170 738l-47 -226q56 19 107 19q128 0 210 -90q67 -73 67 -178q0 -122 -89 -205q-76 -69 -191 -69q-158 0 -253 137l63 43q23 -49 74.5 -78t114.5 -29q99 0 153 62q50 58 50 136q0 90 -64 147q-59 53 -141 53q-78 0 -137 -52l-62 12
l81 390h359v-72h-295zM123 721l-3 10l75 20q20 -56 47 -86q44 -47 130 -47q92 0 140 54q41 46 41 112q0 73 -46 117t-121 44h-49v71h51q62 0 105 42q42 40 42 102q0 65 -44.5 105t-115.5 40q-91 0 -155 -82l-65 36q2 2 7 8.5t8 10.5q74 99 206 99q118 0 182 -73
q53 -59 53 -141q0 -114 -91 -178q110 -68 110 -199q0 -111 -76 -178q-70 -63 -180 -63q-94 0 -159.5 46t-91.5 130z" />
    <glyph glyph-name="fourfifth" unicode="&#x2158;" horiz-adv-x="1707" 
d="M439 21l784 1353l52 -30l-783 -1354zM1176 738l-48 -226q57 19 107 19q127 0 210 -90q67 -73 67 -178q0 -122 -89 -205q-77 -69 -191 -69q-159 0 -252 137l62 43q26 -50 76 -78.5t113 -28.5q99 0 153 62q50 58 50 135q0 90 -64 148q-59 53 -141 53q-78 0 -137 -52l-62 12
l81 390h359v-72h-294zM479 1375l65 -39l-331 -528h290v217h78v-217h104v-72h-104v-181h-78v181h-380v71z" />
    <glyph glyph-name="onesixth" unicode="&#x2159;" horiz-adv-x="1707" 
d="M371 21l783 1353l52 -30l-783 -1354zM1289 821l61 -44l-195 -267q39 10 74 10q133 0 214 -88q64 -70 64 -169q0 -121 -91 -203q-79 -71 -187 -71q-127 0 -210 92q-70 76 -70 181q0 95 63 182zM1229 450q-94 0 -154 -66q-48 -52 -48 -126q0 -87 65 -146q57 -51 138 -51
q90 0 150 66q50 56 50 135q0 77 -52 129q-61 59 -149 59zM391 1365v-810h-78v724l-137 -76l-38 62l178 100h75z" />
    <glyph glyph-name="fivesixth" unicode="&#x215a;" horiz-adv-x="1707" 
d="M452 21l783 1353l53 -30l-784 -1354zM1289 821l61 -44l-194 -267q39 10 74 10q132 0 213 -88q64 -70 64 -169q0 -121 -91 -203q-79 -71 -187 -71q-127 0 -210 92q-70 76 -70 182q0 93 64 181zM1228 450q-93 0 -153 -66q-48 -52 -48 -126q0 -87 65 -146q56 -51 137 -51
q91 0 150 66q50 58 50 135t-52 129q-61 59 -149 59zM317 1293l-47 -226q56 19 106 19q128 0 210 -90q67 -73 67 -178q0 -123 -89 -204q-76 -69 -191 -69q-162 0 -252 136l63 43q23 -48 74.5 -77t113.5 -29q99 0 153 61q50 59 50 136q0 90 -64 147q-59 53 -141 53
q-78 0 -137 -52l-62 12l81 390h359v-72h-294z" />
    <glyph glyph-name="oneeighth" unicode="&#x215b;" horiz-adv-x="1707" 
d="M344 21l783 1353l52 -30l-783 -1354zM1122 432q-94 70 -94 174q0 94 70 158q62 58 165 58q115 0 181 -74q54 -61 54 -142q0 -103 -95 -174q123 -79 123 -206q0 -105 -76 -171q-75 -66 -187 -66q-128 0 -205 83q-58 64 -58 155q0 125 122 205zM1262 390q-76 0 -125 -39
q-60 -48 -60 -126q0 -70 53 -118q49 -46 133 -46q93 0 145 57q41 47 41 108q0 72 -52 118t-135 46zM1262 751q-69 0 -115 -41q-45 -42 -45 -105q0 -62 46 -102q46 -42 115 -42t115 42q46 40 46 104q0 62 -47 104q-43 40 -115 40zM391 1364v-810h-78v724l-137 -76l-38 62
l178 100h75z" />
    <glyph glyph-name="threeeighths" unicode="&#x215c;" horiz-adv-x="1707" 
d="M399 21l783 1353l52 -30l-783 -1354zM1105 432q-94 70 -94 175q0 93 70 157q62 58 165 58q115 0 181 -74q54 -62 54 -141q0 -103 -95 -175q123 -79 123 -206q0 -105 -76 -171q-75 -66 -187 -66q-128 0 -205 83q-58 64 -58 155q0 125 122 205zM1245 390q-75 0 -125 -39
q-60 -48 -60 -126q0 -70 53 -118q49 -46 133 -46q94 0 145 57q41 47 41 108q0 72 -52 118t-135 46zM1244 751q-68 0 -114 -41q-45 -42 -45 -106q0 -62 46 -102q47 -41 115 -41t115 42q46 40 46 103q0 64 -46 104q-47 41 -117 41zM123 721l-3 10l75 20q20 -56 47 -86
q44 -47 130 -47q92 0 140 54q41 46 41 112q0 73 -46 117t-121 44h-49v71h51q62 0 105 42q42 40 42 102q0 65 -44.5 105t-115.5 40q-91 0 -155 -82l-65 36q2 2 7 8.5t8 10.5q74 99 206 99q118 0 182 -73q53 -59 53 -141q0 -114 -91 -178q110 -68 110 -199q0 -111 -76 -178
q-70 -63 -180 -63q-94 0 -159.5 46t-91.5 130z" />
    <glyph glyph-name="fiveeighths" unicode="&#x215d;" horiz-adv-x="1707" 
d="M403 21l783 1353l52 -30l-783 -1354zM1103 432q-94 70 -94 175q0 93 70 157q64 58 165 58q116 0 181 -74q54 -62 54 -141q0 -103 -94 -175q122 -80 122 -206q0 -105 -75 -171q-76 -66 -188 -66q-128 0 -205 83q-58 64 -58 155q0 125 122 205zM1243 390q-75 0 -125 -39
q-60 -48 -60 -126q0 -70 53 -118q49 -46 133 -46q94 0 145 57q41 47 41 108q0 72 -52 118t-135 46zM1242 751q-68 0 -114 -41q-45 -42 -45 -106q0 -61 47 -102t114 -41q68 0 115 42q46 40 46 103q0 64 -46 104q-47 41 -117 41zM317 1293l-47 -226q56 19 106 19
q128 0 210 -90q67 -73 67 -178q0 -123 -89 -204q-76 -69 -191 -69q-162 0 -252 136l63 43q23 -48 74.5 -77t113.5 -29q99 0 153 61q50 59 50 136q0 90 -64 147q-59 53 -141 53q-78 0 -137 -52l-62 12l81 390h359v-72h-294z" />
    <glyph glyph-name="seveneighths" unicode="&#x215e;" horiz-adv-x="1707" 
d="M334 23l784 1354l52 -30l-784 -1354zM1108 432q-95 71 -95 175q0 93 70 157q64 58 165 58q116 0 181 -74q54 -62 54 -141q0 -105 -94 -175q122 -80 122 -206q0 -105 -75 -171q-76 -66 -188 -66q-128 0 -205 83q-58 64 -58 155q0 125 123 205zM1245 390q-91 0 -141 -57
q-42 -47 -42 -107q0 -72 53 -119q49 -46 133 -46q94 0 145 57q41 47 41 109q0 71 -53 118q-53 45 -136 45zM1247 751q-69 0 -115 -41q-45 -42 -45 -105q0 -62 46 -102q47 -42 115 -42t115 42q46 40 46 103q0 64 -46 104q-47 41 -116 41zM279 546l-69 35l392 712h-434v72h523
v-64z" />
    <glyph glyph-name="partialdiff" unicode="&#x2202;" horiz-adv-x="1222" 
d="M309 1290l11 71q159 -29 246 -65q240 -96 374 -305q132 -205 132 -477q0 -182 -75 -311q-62 -108 -167 -166q-100 -57 -221 -57q-205 0 -338 150q-121 136 -121 325q0 218 154 357q128 116 304 116q98 0 175 -34t150 -109q-52 196 -205 325q-168 136 -419 180zM608 849
q-153 0 -259 -104q-111 -109 -111 -296q0 -88 33 -167t91 -131q103 -91 246 -91q166 0 274 117q97 106 97 278q0 194 -124 303q-101 91 -247 91z" />
    <glyph glyph-name="emptyset" unicode="&#x2205;" horiz-adv-x="1252" 
d="M814 1136l127 250l57 -29l-128 -252q69 -45 119 -104q112 -131 112 -305q0 -129 -65 -242q-65 -112 -172 -173q-112 -66 -247 -66q-99 0 -168 32l-12 6l-139 -274l-57 30l139 273q-68 43 -119 103q-111 133 -111 309q0 216 158 359q137 122 319 122q95 0 187 -39z
M412 347l370 727q-73 32 -153 32q-183 0 -304 -136q-105 -120 -105 -275q0 -170 121 -292q35 -33 71 -56zM839 1043l-369 -727q81 -32 156 -32q178 0 300 135q105 115 105 276q0 108 -53 205q-52 94 -139 143z" />
    <glyph glyph-name="increment" unicode="&#x2206;" horiz-adv-x="1343" 
d="M1268 0h-1193l544 1365h105zM200 83h942l-472 1194z" />
    <glyph glyph-name="product" unicode="&#x220f;" horiz-adv-x="1374" 
d="M350 0h-90v1282h-178v83h1211v-83h-178v-1282h-90v1282h-675v-1282z" />
    <glyph glyph-name="summation" unicode="&#x2211;" horiz-adv-x="1362" 
d="M238 96l424 614l-381 559v96h827v-83h-739l393 -569l-428 -629h817v-84h-913v96z" />
    <glyph glyph-name="minus" unicode="&#x2212;" horiz-adv-x="1139" 
d="M186 677h766v-76h-766v76z" />
    <glyph glyph-name="fraction" unicode="&#x2215;" horiz-adv-x="357" 
d="M-239 21l783 1353l52 -30l-783 -1354z" />
    <glyph glyph-name="uni2218" unicode="&#x2218;" horiz-adv-x="956" 
d="M481 942q112 0 189 -86q67 -73 67 -173q0 -116 -86 -193q-73 -67 -173 -67q-116 0 -193 86q-67 73 -67 173q0 97 61 167q79 93 202 93zM475 871q-81 0 -138 -62q-48 -54 -48 -126q0 -85 62 -141q54 -48 127 -48q84 0 140 62q48 54 48 128q0 82 -62 139q-52 48 -129 48z
" />
    <glyph glyph-name="radical" unicode="&#x221a;" horiz-adv-x="1315" 
d="M547 98l552 1615h53h491v-83h-479l-562 -1630h-111l-246 710h-163v79h228l14 -43z" />
    <glyph glyph-name="infinity" unicode="&#x221e;" horiz-adv-x="1399" 
d="M704 636q-71 -101 -130 -151q-95 -82 -211 -82q-131 0 -210 88q-71 79 -71 202q0 136 89 214q83 72 193 72q128 0 240 -114q42 -42 93 -119q67 98 123 148q97 85 217 85q131 0 210 -88q71 -77 71 -201q0 -139 -90 -217q-79 -70 -190 -70q-96 0 -173 53q-75 51 -161 180z
M744 691q37 -58 74 -103q89 -110 217 -110q100 0 154 60q49 53 49 146q0 113 -67 171q-55 49 -141 49t-145 -44q-59 -43 -141 -169zM655 690q-48 78 -95 128q-81 86 -193 86q-99 0 -153 -61q-52 -58 -52 -154q0 -108 62 -162q55 -49 143 -49q87 0 148 44t140 168z" />
    <glyph glyph-name="integral" unicode="&#x222b;" horiz-adv-x="596" 
d="M82 -359v79q32 -8 53 -8q63 0 91.5 46t28.5 149v1316q0 173 70 234q52 44 118 44q30 0 71 -12v-78q-32 8 -53 8q-64 0 -92.5 -46.5t-28.5 -149.5v-1316q0 -172 -70 -233q-50 -44 -117 -44q-29 0 -71 11z" />
    <glyph glyph-name="similar" unicode="&#x223c;" horiz-adv-x="1095" 
d="M137 538l-46 30q53 100 102 147q58 53 143 53q78 0 219 -67q85 -41 129 -54q44 -14 86 -14q56 0 98.5 29t89.5 100l47 -28q-47 -89 -97 -132q-71 -62 -155 -62q-49 0 -91 14q-38 12 -192 83q-87 39 -152 39q-97 0 -181 -138z" />
    <glyph glyph-name="uni2243" unicode="&#x2243;" horiz-adv-x="1111" 
d="M90 509h930v-72h-930v72zM144 685l-46 30q53 101 101 146q57 54 144 54q78 0 219 -68q138 -67 208 -67q63 0 104 28q43 29 90 101l48 -28q-48 -92 -98 -133q-71 -61 -154 -61q-49 0 -91 14q-37 12 -193 83q-87 39 -151 39q-97 0 -181 -138z" />
    <glyph glyph-name="approxequal" unicode="&#x2248;" horiz-adv-x="1095" 
d="M137 374l-46 30q52 100 101 147q58 53 145 53q77 0 218 -67q81 -39 128 -53q45 -14 87 -14q56 0 98.5 29t89.5 99l47 -28q-46 -87 -97 -131q-74 -62 -155 -62q-49 0 -91 14q-32 10 -193 82q-85 39 -151 39q-96 0 -181 -138zM137 719l-46 30q53 101 101 146q57 54 144 54
q78 0 219 -68q138 -67 209 -67q61 0 104 28q43 29 90 101l47 -28q-47 -89 -97 -132q-74 -62 -155 -62q-49 0 -91 14q-37 12 -193 83q-85 39 -151 39q-96 0 -181 -138z" />
    <glyph glyph-name="notequal" unicode="&#x2260;" horiz-adv-x="1113" 
d="M801 1054l-120 -242h342v-76h-380l-96 -193h476v-76h-514l-134 -268l-62 25l121 243h-343v76h380l96 193h-476v76h514l134 268z" />
    <glyph glyph-name="lessequal" unicode="&#x2264;" horiz-adv-x="1111" 
d="M972 399v-86l-833 373v98l833 379v-87l-763 -338zM972 74v-74h-833v74h833z" />
    <glyph glyph-name="greaterequal" unicode="&#x2265;" horiz-adv-x="1111" 
d="M972 0h-833v74h833v-74zM972 686l-833 -373v86l763 339l-763 338v87l833 -379v-98z" />
    <glyph glyph-name="dotmath" unicode="&#x22c5;" horiz-adv-x="425" 
d="M214 752q27 0 47 -20t20 -48t-20 -48.5t-48 -20.5q-27 0 -47.5 20.5t-20.5 47.5q0 29 20 49t49 20z" />
    <glyph glyph-name="lozenge" unicode="&#x25ca;" horiz-adv-x="1383" 
d="M1231 683l-540 -764l-538 764l538 764zM691 58l436 625l-436 624l-434 -624z" />
    <glyph glyph-name="openbullet" unicode="&#x25e6;" horiz-adv-x="956" 
d="M481 942q112 0 189 -86q67 -73 67 -173q0 -116 -86 -193q-73 -67 -173 -67q-116 0 -193 86q-67 73 -67 173q0 97 61 167q79 93 202 93zM475 871q-81 0 -138 -62q-48 -54 -48 -126q0 -85 62 -141q54 -48 127 -48q84 0 140 62q48 54 48 128q0 82 -62 139q-52 48 -129 48z
" />
    <glyph glyph-name="glyph155" horiz-adv-x="539" 
 />
    <glyph glyph-name="glyph172" horiz-adv-x="1164" 
 />
    <glyph glyph-name="glyph210" horiz-adv-x="539" 
 />
    <glyph glyph-name="seven.denominator" 
d="M267 -10l-69 36l392 712h-434v72h523v-64z" />
    <glyph glyph-name="eight.denominator" 
d="M255 432q-94 70 -94 174q0 94 70 158q64 58 165 58q115 0 181 -74q54 -62 54 -142q0 -103 -95 -174q123 -79 123 -206q0 -104 -75 -171q-76 -66 -188 -66q-128 0 -205 83q-58 62 -58 155q0 125 122 205zM393 390q-91 0 -141 -57q-42 -47 -42 -107q0 -72 53 -119
q49 -46 133 -46q92 0 145 57q41 47 41 109q0 71 -53 118q-53 45 -136 45zM395 751q-69 0 -115 -41q-45 -42 -45 -105q0 -62 46 -102q46 -42 115 -42q68 0 115 42q46 40 46 104q0 63 -46 103q-47 41 -116 41z" />
    <glyph glyph-name="nine.denominator" 
d="M338 -10l-61 44l197 270q-42 -9 -75 -9q-137 0 -215 87q-64 70 -64 167q0 120 91 202q79 71 188 71q128 0 210 -91q69 -76 69 -181q0 -96 -64 -182zM398 750q-91 0 -151 -66q-50 -56 -50 -135q0 -81 58 -133q55 -51 141 -51q99 0 158 65q47 53 47 125q0 85 -65 144
q-56 51 -138 51z" />
    <glyph glyph-name="four.fitted" horiz-adv-x="1139" 
d="M693 1377l73 -46l-560 -933h541v376h89v-376h174v-82h-174v-316h-89v316h-633v95z" />
    <glyph glyph-name="three.fitted" horiz-adv-x="1139" 
d="M505 677v79h64q116 0 197 89q68 74 68 184q0 126 -86 203q-80 71 -204 71q-159 0 -260 -137l-72 42q123 177 335 177q182 0 287 -117q86 -97 86 -234q0 -203 -171 -310q204 -114 204 -346q0 -190 -124 -299q-111 -99 -284 -99q-144 0 -248 74q-106 74 -146 204l-2 10
l86 24q38 -101 83 -146q81 -82 226 -82q158 0 244 96q77 86 77 214q0 145 -94 233q-76 70 -204 70h-62z" />
    <glyph glyph-name="zero.denominator" 
d="M391 822q158 0 233.5 -102t75.5 -314q0 -184 -60 -290q-72 -127 -248 -127q-300 0 -300 422q0 411 299 411zM395 750q-93 0 -151 -63q-33 -40 -52 -113q-21 -76 -21 -164q0 -349 224 -349q226 0 226 348q0 341 -226 341z" />
    <glyph glyph-name="two.fitted" horiz-adv-x="1139" 
d="M991 0h-809v96l510 564q178 198 178 355q0 131 -91 213q-83 75 -210 75q-227 0 -305 -240l-81 22q32 109 91 174q116 126 302 126q182 0 289 -119q92 -104 92 -250q0 -84 -27 -148q-51 -124 -162 -247l-485 -538h708v-83z" />
    <glyph glyph-name="one.fitted" horiz-adv-x="1139" 
d="M288 82h276v1192l-243 -141l-41 72l274 160h99v-1283h249v-82h-614v82z" />
    <glyph glyph-name="Dieresis" horiz-adv-x="975" 
d="M677 1688q27 0 47 -20t20 -48t-20 -48.5t-48 -20.5t-48.5 20.5t-20.5 48.5t20.5 48t49.5 20zM300 1688q28 0 48 -20t20 -48t-20 -48.5t-49 -20.5q-27 0 -47.5 20.5t-20.5 47.5q0 29 20 49t49 20z" />
    <glyph glyph-name="Dotaccent" horiz-adv-x="975" 
d="M488 1688q28 0 48 -20t20 -48t-20 -48.5t-49 -20.5q-27 0 -47.5 20.5t-20.5 47.5q0 29 20 49t49 20z" />
    <glyph glyph-name="Ring" horiz-adv-x="975" 
d="M486 1772q65 0 112 -44q46 -45 46 -109q0 -68 -50 -113q-44 -40 -107 -40q-65 0 -111 45t-46 110q0 61 47 106t109 45zM486 1725q-44 0 -74.5 -31t-30.5 -76q0 -43 31.5 -74t74.5 -31q44 0 75 31t31 75t-31 75t-76 31z" />
    <glyph glyph-name="Acute" horiz-adv-x="975" 
d="M489 1497l-49 28l174 240l92 -50z" />
    <glyph glyph-name="Grave" horiz-adv-x="975" 
d="M361 1765l174 -240l-49 -28l-217 218z" />
    <glyph glyph-name="five.fitted" horiz-adv-x="1139" 
d="M894 1282h-487l-90 -450q4 1 32 13q75 34 170 34q205 0 335 -144q111 -123 111 -300q0 -210 -148 -346q-118 -109 -296 -109q-256 0 -395 210l70 51q111 -177 322 -177q170 0 266 110q93 105 93 254q0 170 -119 278q-104 92 -244 92q-138 0 -235 -89l-73 16l127 640h561
v-83z" />
    <glyph glyph-name="Caron" horiz-adv-x="975" 
d="M237 1726l57 28l194 -182l193 182l57 -28l-204 -224h-93z" />
    <glyph glyph-name="Breve" horiz-adv-x="975" 
d="M246 1710l74 6q7 -68 52.5 -109.5t112.5 -41.5q66 0 111.5 40t58.5 111l73 -6q-19 -103 -83 -161t-159 -58q-99 0 -164 59t-76 160z" />
    <glyph glyph-name="Tilde" horiz-adv-x="975" 
d="M304 1549l-66 15q29 128 132 128q44 0 132 -41q60 -28 102 -28q50 0 67 66l65 -15q-21 -127 -131 -127q-54 0 -128 37q-67 33 -105 33q-47 0 -68 -68z" />
    <glyph glyph-name="Hungarumlaut" horiz-adv-x="975" 
d="M299 1524l174 240l86 -48l-217 -218zM586 1524l174 240l86 -48l-217 -218z" />
    <glyph glyph-name="Cedilla" horiz-adv-x="975" 
d="M531 -129l83 -35l-172 -219l-55 28z" />
    <glyph glyph-name="Ogonek" horiz-adv-x="975" 
d="M927 -199l25 -62q-54 -19 -99 -19q-66 0 -110 38t-44 95q0 70 64 147h85q-70 -80 -70 -139q0 -73 89 -73q27 0 60 13z" />
    <glyph glyph-name="Macron" horiz-adv-x="975" 
d="M234 1580v78h507v-78h-507z" />
    <glyph glyph-name="Commaaccent" horiz-adv-x="975" 
d="M369 -401l81 273l87 -27l-113 -263z" />
    <glyph glyph-name="Comma.high" horiz-adv-x="975" 
d="M615 1493l81 273l87 -27l-113 -263z" />
    <glyph glyph-name="Dieresis.alt" horiz-adv-x="975" 
d="M619 1688q27 0 47 -20t20 -48t-20 -48.5t-48 -20.5t-48.5 20.5t-20.5 48.5t20.5 48t49.5 20zM344 1688q28 0 48 -20t20 -48t-20 -48.5t-49 -20.5q-27 0 -47.5 20.5t-20.5 47.5q0 29 20 49t49 20z" />
    <glyph glyph-name="commaaccent" horiz-adv-x="975" 
d="M369 -401l81 273l87 -27l-113 -263z" />
    <glyph glyph-name="comma.high" horiz-adv-x="975" 
d="M615 1083l81 273l87 -27l-113 -263z" />
    <glyph glyph-name="dieresis.alt" horiz-adv-x="975" 
d="M344 1274q28 0 48 -20t20 -48q0 -29 -20 -49t-49 -20q-27 0 -47.5 20.5t-20.5 47.5q0 29 20 49t49 20zM619 1274q27 0 47 -20t20 -48t-20 -48.5t-48 -20.5t-48.5 20.5t-20.5 47.5q0 29 20.5 49t49.5 20z" />
    <glyph glyph-name="commareversed" horiz-adv-x="975" 
d="M783 1340l-80 -273l-88 26l113 264z" />
    <glyph glyph-name="G.salt" horiz-adv-x="1493" 
d="M1248 294v297h-366v83h454v-418q-58 -74 -99 -108q-203 -168 -450 -168q-180 0 -337 91q-162 92 -257 260q-93 163 -93 351q0 193 97 359q92 159 247 251q159 93 347 93q261 0 461 -196l-60 -60q-169 172 -403 172q-268 0 -440 -196q-158 -179 -158 -423q0 -171 83 -317
q81 -142 221 -222q136 -79 295 -79q268 0 458 217v13z" />
    <glyph glyph-name="M.salt" horiz-adv-x="1731" 
d="M150 0l135 1365h100l481 -946l479 946h100l136 -1365h-92l-118 1244l-462 -914h-87l-464 913l-118 -1243h-90z" />
    <glyph glyph-name="y.salt" horiz-adv-x="877" 
d="M262 -277l127 297l-374 888h94l325 -784l334 784h94l-527 -1220q-42 -98 -86 -141.5t-101 -43.5q-21 0 -48 6l12 78q12 -4 23 -4q25 0 50 18q37 26 77 122z" />
    <glyph glyph-name="parenleft.salt" horiz-adv-x="567" 
d="M423 -201l-76 -35q-41 85 -73 206q-90 340 -90 713q0 188 29 399q29 206 78 372q21 72 56 148l76 -35q-152 -396 -152 -884q0 -490 152 -884z" />
    <glyph glyph-name="parenright.salt" horiz-adv-x="567" 
d="M219 -237l-76 36q152 393 152 883t-152 884l76 35q41 -85 73 -206q90 -341 90 -712q0 -197 -28 -399q-28 -207 -78 -372q-23 -78 -57 -149z" />
    <glyph glyph-name="bracketleft.salt" horiz-adv-x="570" 
d="M265 -151h202v-81h-290v1829h290v-81h-202v-1667z" />
    <glyph glyph-name="bracketright.salt" horiz-adv-x="570" 
d="M102 -232v81h202v1667h-202v81h290v-1829h-290z" />
    <glyph glyph-name="afii61248.salt" horiz-adv-x="1575" 
d="M654 1229l-53 -52q-69 70 -155 70q-99 0 -159 -66q-52 -58 -52 -149q0 -105 67 -163q58 -52 146 -52q90 0 158 74l52 -51q-92 -93 -210 -93q-135 0 -219 94q-72 81 -72 191q0 128 92 212q80 73 199 73q109 0 206 -88zM1134 546q127 0 211 -94q72 -80 72 -190
q0 -129 -93 -213q-79 -73 -194 -73q-131 0 -215 94q-72 81 -72 191q0 108 68 187q86 98 223 98zM1127 476q-89 0 -148 -60q-58 -61 -58 -154q0 -104 67 -164q58 -52 142 -52q96 0 157 67q52 56 52 150q0 101 -67 161q-58 52 -145 52zM362 24l775 1350l56 -33l-775 -1351z
" />
    <glyph glyph-name="braceleft.salt" horiz-adv-x="579" 
d="M118 648v72q68 28 97 79q27 49 27 145v383q0 121 34 182q48 89 206 89h6h14v-76q-103 0 -137 -40q-36 -40 -36 -154v-387q0 -102 -30 -163.5t-97 -95.5q67 -35 97 -96.5t30 -163.5v-382q0 -119 38 -160q31 -32 135 -37v-76h-18q-137 0 -189 61q-53 62 -53 218v374
q0 98 -27 149q-29 51 -97 79z" />
    <glyph glyph-name="braceright.salt" horiz-adv-x="579" 
d="M461 720v-72q-68 -28 -97 -79q-28 -50 -28 -149v-374q0 -128 -34 -190q-48 -89 -207 -89h-18v76q107 3 140 45q32 41 32 152v382q0 102 30 163.5t97 96.5q-67 34 -97 95t-30 164v387q0 67 -9 102t-33 59q-35 33 -130 33v76h14h6q157 0 205 -89q34 -61 34 -182v-383
q0 -95 28 -145t97 -79z" />
    <glyph glyph-name="copyright.salt" horiz-adv-x="983" 
d="M702 1305l-39 -39q-60 62 -131 62q-80 0 -133 -59q-48 -55 -48 -129q0 -87 61 -142q50 -46 121 -46q68 0 133 62l38 -38q-80 -78 -171 -78q-107 0 -178 80q-61 68 -61 162q0 108 79 181q67 61 160 61q89 0 169 -77zM519 1552q184 0 309 -137q107 -119 107 -277
q0 -184 -137 -309q-118 -106 -281 -106q-182 0 -303 136q-108 121 -108 285q0 174 138 302q115 106 275 106zM517 1501q-158 0 -265 -119q-95 -107 -95 -250q0 -72 32.5 -143t88.5 -122q102 -93 242 -93q164 0 270 120q94 103 94 244q0 159 -120 270q-102 93 -247 93z" />
    <glyph glyph-name="registered.salt" horiz-adv-x="983" 
d="M590 1104l114 -203h-64l-105 192q-2 0 -6 -0.5t-9.5 -1t-9.5 -0.5q-11 -1 -28 -1h-36v-189h-55v477h108q95 0 136 -47q36 -41 36 -98q0 -90 -81 -129zM446 1325v-183h60q110 0 110 88q0 95 -111 95h-59zM520 1553q184 0 309 -137q107 -119 107 -278q0 -184 -138 -309
q-118 -106 -277 -106q-173 0 -293 122q-122 122 -122 299q0 176 139 303q113 106 275 106zM518 1502q-160 0 -266 -120q-95 -106 -95 -248q0 -67 28.5 -135.5t77.5 -117.5q107 -107 258 -107q163 0 270 120q94 103 94 244q0 160 -120 270q-103 94 -247 94z" />
    <glyph glyph-name="Circumflex" horiz-adv-x="975" 
d="M488 1679l-194 -182l-57 28l204 224h93l204 -224l-57 -28z" />
    <glyph glyph-name="six.fitted" horiz-adv-x="1139" 
d="M224 736l449 638l68 -51l-353 -504q85 41 180 41q207 0 336 -141q107 -118 107 -284q0 -205 -149 -342q-124 -113 -294 -113q-197 0 -329 146q-117 129 -117 307q0 157 102 303zM567 780q-162 0 -267 -116q-89 -100 -89 -238q0 -164 119 -274q99 -90 239 -90
q156 0 261 118q92 104 92 253q0 143 -95 240q-107 107 -260 107z" />
    <glyph glyph-name="seven.fitted" horiz-adv-x="1139" 
d="M266 32l659 1250h-737v83h831v-85l-675 -1290z" />
    <glyph glyph-name="eight.fitted" horiz-adv-x="1139" 
d="M375 726q-69 43 -108 97q-69 96 -69 210q0 156 116 260q101 92 256 92q176 0 281 -117q90 -100 90 -235q0 -197 -177 -307q223 -123 223 -355q0 -177 -124 -286q-119 -105 -293 -105q-124 0 -231 60q-87 51 -136 133q-51 85 -51 198q0 232 223 355zM564 677
q-154 0 -246 -102q-78 -85 -78 -205q0 -136 99 -226q90 -81 231 -81q161 0 252 103q77 86 77 206q0 134 -98 224q-89 81 -237 81zM567 1304q-134 0 -218 -92q-68 -76 -68 -185q0 -118 89 -198q81 -72 199 -72q136 0 220 92q69 77 69 183q0 120 -87 200q-79 72 -204 72z" />
    <glyph glyph-name="nine.fitted" horiz-adv-x="1139" 
d="M915 629l-448 -639l-69 52l354 505q-84 -36 -177 -36q-217 0 -342 140q-105 115 -105 281q0 203 149 340q124 113 295 113q201 0 331 -145q114 -128 114 -306q0 -160 -102 -305zM571 1303q-157 0 -262 -118q-93 -103 -93 -254q0 -153 109 -250q99 -90 244 -90
q167 0 272 116q88 97 88 235q0 163 -118 271q-99 90 -240 90z" />
    <glyph glyph-name="zero.fitted" horiz-adv-x="1139" 
d="M570 1385q270 0 384 -201q102 -180 102 -502q0 -320 -102 -501q-112 -201 -387 -201q-172 0 -285 86q-199 154 -199 626q0 314 102 493q116 200 385 200zM571 1302q-398 0 -398 -644q0 -246 91 -424q40 -79 126 -127q80 -44 179 -44q143 0 239 87q158 143 158 533
q0 287 -91 448q-47 83 -126 126q-79 45 -178 45z" />
    <glyph glyph-name="sterling.fitted" horiz-adv-x="1139" 
d="M817 640h-415l8 -38q30 -148 30 -216q0 -71 -22 -124.5t-74 -113.5q-28 -32 -66 -66h743v-82h-852v97q60 49 95 85q88 89 88 197q0 78 -33 233l-6 28h-144v80h127l-11 52q-20 98 -20 193q0 221 122 325q113 95 264 95q197 0 316 -179l-71 -47q-100 144 -251 144
q-131 0 -216 -90q-77 -82 -77 -249q0 -76 26 -206l7 -38h432v-80z" />
    <glyph glyph-name="dollar.fitted" horiz-adv-x="1139" 
d="M537 1383v187h88v-187q170 -19 283 -177l-71 -46q-110 143 -265 143q-136 0 -219 -93q-69 -78 -69 -176q0 -166 227 -255l138 -54q159 -63 233 -146.5t74 -201.5q0 -145 -92 -254q-93 -109 -239 -135v-200h-88v192q-139 0 -243 83q-105 84 -145 224l87 25q28 -94 82 -153
q92 -95 228 -95q146 0 241 104q79 88 79 207q0 95 -61 159q-60 63 -207 122l-132 52q-163 64 -226 163q-44 73 -44 163q0 144 93 238t248 111z" />
    <glyph glyph-name="cent.fitted" horiz-adv-x="1139" 
d="M568 0v213q-115 13 -205 75q-90 63 -143 164q-55 106 -55 231q0 185 113 316t290 152v214h87v-210q159 -11 289 -132l-59 -59q-112 112 -259 112q-170 0 -277 -117q-96 -106 -96 -277q0 -192 122 -302q104 -92 254 -92q157 0 264 119l58 -59q-118 -126 -296 -139v-209
h-87z" />
    <glyph glyph-name="florin.fitted" horiz-adv-x="1139" 
d="M143 -392l16 80q19 -4 38 -4q131 0 165 175l198 971h-97l16 78h97l4 23l36 175q56 270 255 270q25 0 54 -6l-17 -80q-20 4 -38 4q-130 0 -164 -175l-43 -211h169l-16 -78h-169l-195 -958q-56 -270 -253 -270q-24 0 -56 6z" />
    <glyph glyph-name="Euro.fitted" horiz-adv-x="1139" 
d="M1107 865l-32 -80h-878q-8 -54 -8 -102q0 -47 8 -103h797l-32 -80h-747q37 -128 123 -229q86 -100 203 -153q117 -54 247 -54q112 0 201 37q90 38 199 127v-111q-173 -137 -398 -137q-238 0 -423 145q-186 145 -245 375h-188l32 80h140q-8 45 -8 97q0 55 8 108h-172
l32 80h157q37 153 145 279q205 241 523 241q253 0 449 -184l-33 -82q-196 182 -424 182q-199 0 -355 -120t-213 -316h892z" />
    <glyph glyph-name="yen.fitted" horiz-adv-x="1139" 
d="M524 0v500h-346v80h337v8l-108 197h-229v80h185l-275 500h98l383 -708l385 708h96l-275 -500h186v-80h-230l-109 -197v-8h339v-80h-347v-500h-90z" />
    <glyph glyph-name="one.numerator" 
d="M467 1365v-810h-78v724l-137 -76l-38 63l178 99h75z" />
    <glyph glyph-name="two.numerator" 
d="M654 555h-510v72l309 328q103 109 103 197q0 67 -49 110q-46 42 -119 42q-68 0 -109.5 -33.5t-65.5 -107.5l-72 20q20 71 56 111q72 82 195 82q116 0 184 -75q57 -63 57 -150q0 -111 -117 -236l-271 -288h409v-72z" />
    </font>
</defs>
</svg>
