<?xml version="1.0" standalone="no"?>
<!DOCTYPE svg PUBLIC "-//W3C//DTD SVG 1.1//EN" "http://www.w3.org/Graphics/SVG/1.1/DTD/svg11.dtd" >
<svg xmlns="http://www.w3.org/2000/svg" xmlns:xlink="http://www.w3.org/1999/xlink" version="1.1">
<metadata>
Created by FontForge 20170731 at Thu Nov 17 12:15:46 2022
 By Aleksey,,,
Copyright (c) 2018 by Fontsmith Ltd. All rights reserved. This font may not be altered in any way without prior permission of Fontsmith Ltd. |DCNT
</metadata>
<defs>
<font id="FSBraboPro-Italic" horiz-adv-x="847" >
  <font-face 
    font-family="FS Brabo Pro"
    font-weight="400"
    font-style="italic"
    font-stretch="normal"
    units-per-em="2048"
    panose-1="2 4 5 2 8 4 6 2 4 3"
    ascent="1536"
    descent="-512"
    x-height="936"
    cap-height="1395"
    bbox="-836 -672 3387 2208"
    underline-thickness="108"
    underline-position="-313"
    slope="-11"
    unicode-range="U+000D-FB02"
  />
<missing-glyph horiz-adv-x="999" 
d="M53 0v1378h985v-1378h-985zM547 776l334 506h-670zM154 186l333 504l-333 502v-1006zM940 186v1006l-336 -502zM211 98h670l-334 502z" />
    <glyph glyph-name="fi" unicode="fi" horiz-adv-x="1144" 
d="M-444 -500q0 62 38 131l17 4q49 -43 108 -69.5t103 -26.5q53 3 82.5 37.5t59.5 142t69 338.5q31 198 121 693l14 84l-211 -13q0 51 14 68l11 8l202 27l13 51q62 258 208.5 401.5t370.5 143.5q110 0 189 -43q82 -43 82 -103q0 -53 -46.5 -100.5t-107.5 -67.5l-16 13
q-13 109 -54.5 166t-105.5 57q-159 0 -248 -160q-88 -158 -123 -369q64 9 232 15q232 8 325 8q62 0 62 -45q0 -51 -52 -213l-143 -465q-22 -71 -22 -82t3 -13.5t13 -2.5q26 0 89 50t128 126l12 -4q-12 -70 -30 -121q-73 -88 -153.5 -140.5t-145.5 -52.5q-39 0 -66 21t-27 51
q0 18 17 84l20 72l125 420l12 41q33 115 33 133t-9.5 25t-33.5 7l-403 7q-82 -450 -133 -697q-34 -168 -65 -275.5t-81 -199.5q-59 -112 -146.5 -174.5t-199.5 -62.5q-151 0 -151 75z" />
    <glyph glyph-name="fl" unicode="fl" horiz-adv-x="1204" 
d="M-444 -500q0 62 38 131l17 4q49 -43 108 -69.5t103 -26.5q53 3 82.5 37.5t59.5 142t69 338.5q53 319 135 777l-211 -13q0 51 14 68l11 8l202 27l6 34q47 264 195.5 413t362.5 149q140 0 241 -76l86 51l31 -18l-289 -1196q-33 -126 -33 -152q0 -25 21 -25q29 0 87 48
t155 149l12 -4q-11 -64 -31 -121q-80 -93 -165.5 -148t-155.5 -55q-43 0 -73 24t-30 60q0 30 31 148l18 76l254 1046q-30 53 -79 82t-107 29q-129 0 -223 -105t-144 -372l-8 -46q57 11 80 11l209 4q-6 -58 -31 -94l-10 -7l-262 5q-42 -227 -133 -697q-34 -168 -65 -275.5
t-81 -199.5q-59 -112 -146.5 -174.5t-199.5 -62.5q-151 0 -151 75z" />
    <glyph glyph-name="K_A.liga" unicode="KA" horiz-adv-x="2754" 
d="M2101 63l8 5l43 10q9 0 66 14q43 12 43 49q0 61 -35 379q-75 -10 -162 -10h-321l-160 -301q-27 -49 -27 -70q0 -26 31 -35q69 -23 127 -36q-3 -44 -18 -68l-15 -8q-164 8 -254 8q-6 0 -182 -4q-180 -4 -201 -4q-61 0 -99 24t-71 82l-137 250q-79 147 -147 258
q-42 68 -82 94l6 29q103 59 168 121q172 154 285 262l102 94q33 33 33 56q0 11 -6 17.5t-23 10.5q-76 20 -110 25q3 39 20 74l12 6q82 -9 238 -9q139 0 250 9q0 -35 -15 -76l-6 -6l-73 -21q-64 -15 -138 -80l-526 -467v-10l166 -291q125 -218 166 -284q31 -48 71.5 -70
t102.5 -22q131 0 201 120q252 454 495 877q47 81 74 123q84 136 119 205l14 8q70 16 168 22l6 -65q5 -49 10 -96t7 -65.5t2 -20.5q71 -666 106 -1024q1 -28 13 -41.5t36 -18.5q57 -15 109 -22q-3 -42 -17 -74l-10 -6l-43 2q-104 8 -199 8q-75 0 -235 -10q0 41 14 73zM-10 68
l10 6q82 15 121 30q27 9 33 39l206 1008q15 71 15 96q0 19 -9.5 29t-33.5 16q-79 18 -111 23q8 55 19 76l6 4q117 -9 248 -9q133 0 247 9q-3 -36 -20 -76l-10 -6l-121 -31q-27 -6 -33 -39l-207 -1007q-14 -66 -14 -97q0 -19 9.5 -29t33.5 -16q63 -14 110 -22q-9 -58 -18 -76
l-6 -4q-104 8 -248 8q-147 0 -248 -8q2 33 21 76zM1942 614h274l-39 381q-9 78 -20 215h-19l-125 -211q-99 -170 -217 -393q52 8 146 8z" />
    <glyph glyph-name="R_A.liga" unicode="RA" horiz-adv-x="2672" 
d="M2019 63l9 5l43 10q8 0 65 14q43 12 43 49q0 61 -35 379q-75 -10 -162 -10h-321l-160 -301q-26 -48 -26 -70q0 -26 30 -35q69 -23 127 -36q-3 -44 -18 -68l-15 -8q-164 8 -256 8l-196 -2q-39 -2 -158 -2q-68 0 -108 24.5t-66 85.5q-75 173 -88 207l-70 164l-34 80
q-12 31 -29 44t-49 13q-43 0 -121 4q-11 -50 -84 -415q-1 -4 -7.5 -37t-6.5 -43q0 -17 18 -23q60 -15 129 -28q-6 -45 -22 -74l-9 -6q-107 8 -243 8q-123 0 -230 -8q3 42 19 71l10 7q24 6 67 18t50 14q19 6 27 14t12 25l120 592q39 200 60 289q45 224 45 240q0 23 -27 26
q-69 15 -121 21q5 28 21 75l10 7q117 -5 211 -5q15 0 35.5 1t51 2t52.5 2l111 2q195 0 317 -70q150 -89 150 -274q0 -159 -115 -277q-114 -114 -299 -141v-10l72 -166l29 -68l26 -65l35 -80q28 -61 47 -92q26 -48 63.5 -68.5t98.5 -20.5q68 0 117 29.5t86 97.5
q252 454 495 877q47 81 74 123q84 136 119 205l14 8q70 16 168 22l6 -67q14 -161 19 -180q21 -168 45 -418l39 -373q5 -53 13 -131l9 -102q1 -28 13 -41.5t36 -18.5q57 -15 109 -22q-3 -42 -17 -74l-10 -6l-43 2q-104 8 -198 8q-76 0 -236 -10q0 41 14 73zM891 793
q115 85 115 239q0 131 -82 201q-84 72 -224 72q-54 0 -100 -9q-21 -5 -29 -12t-14 -29q-32 -141 -49 -229q-15 -62 -64 -305q59 -12 168 -12q169 0 279 84zM1860 614h274l-39 381q-2 24 -9.5 98t-10.5 117h-19l-125 -211q-99 -170 -217 -393q52 8 146 8z" />
    <glyph glyph-name="T_T.liga" unicode="TT" horiz-adv-x="2281" 
d="M264 66l10 6l127 26q22 7 33 16t15 31l204 977q19 90 19 135q0 31 -45 37q-54 4 -82 4h-94q-89 0 -127 -24t-68 -94q-12 -34 -55 -166l-15 -8q-39 3 -80 22q40 222 76 369l17 8q99 -12 180 -14q200 -5 407 -5h484h475h180q107 0 264 5q91 3 158 12l12 -10
q-44 -293 -59 -371l-8 -10q-28 -14 -84 -11q2 37 2 154q0 70 -27.5 103.5t-93.5 37.5q-23 2 -104 2q-77 0 -91 -2q-45 -5 -62 -16t-24 -45l-204 -995q-17 -97 -17 -103q0 -20 8.5 -29.5t32.5 -13.5l135 -24q-9 -58 -18 -76l-6 -4q-163 10 -269 10q-104 0 -264 -10
q0 30 17 76l10 6l127 26q22 7 32.5 16t14.5 31l205 977q18 86 18 135q0 34 -53 37q-23 2 -303 2q-315 0 -338 -2q-44 -2 -61.5 -13t-24.5 -46l-205 -995q-16 -91 -16 -103q0 -20 8.5 -29.5t32.5 -13.5l135 -24q-8 -55 -19 -76l-6 -4q-163 10 -268 10q-104 0 -264 -10
q0 33 16 76z" />
    <glyph glyph-name="T_h.liga" unicode="Th" horiz-adv-x="2228" 
d="M1645 49q0 32 47 178l120 367q54 160 54 197q0 45 -35 45q-48 5 -143 -100.5t-197.5 -270t-177.5 -330.5q-37 -82 -58 -143l-14 -8q-6 -2 -29 -2q-57 0 -79 36q18 57 69 258l33 125q28 112 97 389t108 435l16 73h-444q-50 0 -94 -6q-31 -5 -47.5 -19.5t-22.5 -47.5
l-203 -985q-16 -91 -16 -103q0 -20 8.5 -29.5t32.5 -13.5l135 -24q-8 -55 -19 -76l-6 -4q-163 10 -268 10q-104 0 -264 -10q0 33 16 76l10 6l127 26q22 7 33 16t15 31l204 977q19 90 19 131q0 35 -45 41q-54 4 -82 4h-99q-91 0 -125.5 -22.5t-64.5 -95.5q-12 -34 -55 -166
l-15 -8q-39 3 -80 22q40 222 76 369l17 8q100 -12 182 -14q200 -5 407 -5q307 0 685 3l16 86q51 10 143 20l31 -18l-115 -467q-34 -144 -69 -252l-107 -330h14q155 271 273 389q116 119 242 119q124 0 124 -125q0 -64 -53 -229l-127 -377q-18 -58 -18 -74t16 -16q29 0 99 55
q73 57 129 125l12 -4q-11 -64 -31 -121q-65 -77 -156 -137t-163 -60q-41 0 -64.5 22t-23.5 54z" />
    <glyph glyph-name="Tcaron_h.liga" unicode="&#x164;h" horiz-adv-x="2228" 
d="M1645 49q0 32 47 178l120 367q54 160 54 197q0 45 -35 45q-48 5 -143 -100.5t-197.5 -270t-177.5 -330.5q-37 -82 -58 -143l-14 -8q-6 -2 -29 -2q-57 0 -79 36q18 57 69 258l33 125q28 112 97 389t108 435l16 73h-444q-50 0 -94 -6q-31 -5 -47.5 -19.5t-22.5 -47.5
l-203 -985q-16 -91 -16 -103q0 -20 8.5 -29.5t32.5 -13.5l135 -24q-8 -55 -19 -76l-6 -4q-163 10 -268 10q-104 0 -264 -10q0 33 16 76l10 6l127 26q22 7 33 16t15 31l204 977q19 90 19 131q0 35 -45 41q-54 4 -82 4h-99q-91 0 -125.5 -22.5t-64.5 -95.5q-12 -34 -55 -166
l-15 -8q-39 3 -80 22q40 222 76 369l17 8q100 -12 182 -14q200 -5 407 -5q307 0 685 3l16 86q51 10 143 20l31 -18l-115 -467q-34 -144 -69 -252l-107 -330h14q155 271 273 389q116 119 242 119q124 0 124 -125q0 -64 -53 -229l-127 -377q-18 -58 -18 -74t16 -16q29 0 99 55
q73 57 129 125l12 -4q-11 -64 -31 -121q-65 -77 -156 -137t-163 -60q-41 0 -64.5 22t-23.5 54zM762 1550l-12 6l-193 267q16 28 55 43h13l202 -180h21l303 182q28 -22 37 -56l-2 -10l-305 -252h-119z" />
    <glyph glyph-name="uni01620068.liga" unicode="&#x162;h" horiz-adv-x="2228" 
d="M1645 49q0 32 47 178l120 367q54 160 54 197q0 45 -35 45q-48 5 -143 -100.5t-197.5 -270t-177.5 -330.5q-37 -82 -58 -143l-14 -8q-6 -2 -29 -2q-57 0 -79 36q18 57 69 258l33 125q28 112 97 389t108 435l16 73h-444q-50 0 -94 -6q-31 -5 -47.5 -19.5t-22.5 -47.5
l-203 -985q-16 -91 -16 -103q0 -20 8.5 -29.5t32.5 -13.5l135 -24q-8 -55 -19 -76l-6 -4q-163 10 -268 10q-104 0 -264 -10q0 33 16 76l10 6l127 26q22 7 33 16t15 31l204 977q19 90 19 131q0 35 -45 41q-54 4 -82 4h-99q-91 0 -125.5 -22.5t-64.5 -95.5q-12 -34 -55 -166
l-15 -8q-39 3 -80 22q40 222 76 369l17 8q100 -12 182 -14q200 -5 407 -5q307 0 685 3l16 86q51 10 143 20l31 -18l-115 -467q-34 -144 -69 -252l-107 -330h14q155 271 273 389q116 119 242 119q124 0 124 -125q0 -64 -53 -229l-127 -377q-18 -58 -18 -74t16 -16q29 0 99 55
q73 57 129 125l12 -4q-11 -64 -31 -121q-65 -77 -156 -137t-163 -60q-41 0 -64.5 22t-23.5 54zM244 -559l4 10q96 20 156.5 63t60.5 101q0 65 -94 102q-25 9 -25 33q0 42 38.5 72.5t92.5 30.5q51 0 91 -41.5t40 -102.5q0 -117 -79.5 -201t-221.5 -116q-39 22 -63 49z" />
    <glyph glyph-name="uni021A0068.liga" unicode="&#x21a;h" horiz-adv-x="2228" 
d="M1645 49q0 32 47 178l120 367q54 160 54 197q0 45 -35 45q-48 5 -143 -100.5t-197.5 -270t-177.5 -330.5q-37 -82 -58 -143l-14 -8q-6 -2 -29 -2q-57 0 -79 36q18 57 69 258l33 125q28 112 97 389t108 435l16 73h-444q-50 0 -94 -6q-31 -5 -47.5 -19.5t-22.5 -47.5
l-203 -985q-16 -91 -16 -103q0 -20 8.5 -29.5t32.5 -13.5l135 -24q-8 -55 -19 -76l-6 -4q-163 10 -268 10q-104 0 -264 -10q0 33 16 76l10 6l127 26q22 7 33 16t15 31l204 977q19 90 19 131q0 35 -45 41q-54 4 -82 4h-99q-91 0 -125.5 -22.5t-64.5 -95.5q-12 -34 -55 -166
l-15 -8q-39 3 -80 22q40 222 76 369l17 8q100 -12 182 -14q200 -5 407 -5q307 0 685 3l16 86q51 10 143 20l31 -18l-115 -467q-34 -144 -69 -252l-107 -330h14q155 271 273 389q116 119 242 119q124 0 124 -125q0 -64 -53 -229l-127 -377q-18 -58 -18 -74t16 -16q29 0 99 55
q73 57 129 125l12 -4q-11 -64 -31 -121q-65 -77 -156 -137t-163 -60q-41 0 -64.5 22t-23.5 54zM244 -559l4 10q96 20 156.5 63t60.5 101q0 65 -94 102q-25 9 -25 33q0 42 38.5 72.5t92.5 30.5q51 0 91 -41.5t40 -102.5q0 -117 -79.5 -201t-221.5 -116q-39 22 -63 49z" />
    <glyph glyph-name="f_b.liga" unicode="fb" horiz-adv-x="1662" 
d="M-444 -500q0 62 38 131l17 4q49 -43 108 -69.5t103 -26.5q53 3 82.5 37.5t59.5 142t69 338.5q49 301 135 777l-211 -13q0 51 14 68l11 8l202 27l6 34q47 264 195.5 413t362.5 149q140 0 241 -76l86 51l31 -18l-121 -482q-40 -168 -151 -508h14q252 449 495 449
q79 0 130 -59.5t51 -157.5q0 -165 -86 -342q-81 -173 -219 -289q-136 -115 -279 -115q-78 0 -137 34.5t-78 86.5h-6l-57 -104l-17 -8q-17 0 -38.5 10t-33.5 24q38 107 72 248l232 944q19 64 26 125q-31 50 -79 77.5t-103 27.5q-131 0 -222.5 -110.5t-144.5 -364.5l-8 -48
q57 11 80 11l209 4q-6 -58 -31 -94l-10 -7l-262 5q-98 -523 -133 -697q-34 -168 -65 -275.5t-81 -199.5q-59 -112 -146.5 -174.5t-199.5 -62.5q-151 0 -151 75zM1350 727q0 117 -60 117q-66 0 -164 -101q-109 -118 -186 -235q-88 -131 -123 -221q-2 -5 -9.5 -22t-13 -32
t-6.5 -22q1 -72 48.5 -116t115.5 -44q86 0 178 115q94 117 156 276q64 162 64 285z" />
    <glyph glyph-name="f_f.liga" unicode="ff" horiz-adv-x="1263" 
d="M-444 -500q0 62 38 131l17 4q49 -43 108.5 -69.5t104.5 -26.5q53 4 82 39t58 141.5t69 337.5q17 109 117 668l20 109l-213 -13q0 51 14 68l11 8l204 27l2 12q42 246 190.5 394.5t346.5 148.5q104 0 164.5 -37.5t60.5 -98.5q0 -13 -4 -45h6q64 104 162.5 163t214.5 59
q79 0 133 -32t54 -77q0 -38 -29 -76t-76 -63l-20 4q-31 95 -61 132.5t-79 37.5q-89 0 -147 -82q-53 -77 -86 -182.5t-62 -268.5q57 13 82 13l209 4q-6 -59 -30 -94l-11 -7l-264 5q-65 -355 -119 -623q-34 -170 -64.5 -276.5t-80.5 -198.5q-125 -238 -346 -238
q-152 0 -152 76q0 60 39 131l17 4q122 -96 208 -96q55 3 85.5 37.5t60.5 142t69 338.5q45 289 121 715q-58 -10 -125 -10h-323q-111 -595 -133 -699q-34 -168 -65 -275.5t-81 -199.5q-59 -112 -146.5 -174.5t-199.5 -62.5q-151 0 -151 75zM467 926h328l4 24q23 146 96 279
q-18 78 -74 126t-125 48q-143 0 -221.5 -118t-128.5 -370q64 11 121 11z" />
    <glyph glyph-name="f_f_b.liga" unicode="ffb" horiz-adv-x="2275" 
d="M-444 -500q0 62 38 131l17 4q49 -43 108.5 -69.5t104.5 -26.5q53 4 82 39t58 141.5t69 337.5q17 109 117 668l20 109l-213 -13q0 51 14 68l11 8l204 27q42 257 190.5 406t348.5 149q104 0 164.5 -39t60.5 -105q0 -5 -4 -37h6q72 108 179.5 165t228.5 57q141 0 242 -76
l86 51l30 -18l-121 -482q-40 -168 -151 -508h14q252 449 496 449q79 0 129.5 -59.5t50.5 -157.5q0 -165 -86 -342q-81 -173 -219 -289q-136 -115 -279 -115q-78 0 -137 34.5t-78 86.5h-6l-57 -104l-17 -8q-17 0 -38 10t-33 24q35 99 71 248l232 944q21 69 27 125
q-32 50 -81 77.5t-104 27.5q-130 0 -219 -110t-147 -365l-9 -48q57 11 80 11l209 4q-6 -58 -31 -94l-10 -7l-262 5q-65 -355 -119 -623q-34 -170 -64.5 -276.5t-80.5 -198.5q-125 -238 -346 -238q-152 0 -152 76q0 60 39 131l17 4q122 -96 208 -96q55 3 85.5 37.5t60.5 142
t69 338.5q45 289 121 715q-58 -10 -125 -10h-323q-111 -595 -133 -699q-34 -168 -65 -275.5t-81 -199.5q-59 -112 -146.5 -174.5t-199.5 -62.5q-151 0 -151 75zM467 926h328q26 167 100 303q-18 78 -74 126t-125 48q-143 0 -221.5 -118t-128.5 -370q64 11 121 11zM1962 727
q0 117 -59 117q-66 0 -164 -101q-113 -122 -187 -235q-86 -128 -122 -221q-2 -5 -9.5 -22t-13 -32t-6.5 -22q1 -72 48.5 -116t115.5 -44q86 0 178 115q93 115 155 276q64 162 64 285z" />
    <glyph glyph-name="f_f_h.liga" unicode="ffh" horiz-adv-x="2281" 
d="M-444 -500q0 62 38 131l17 4q49 -43 108.5 -69.5t104.5 -26.5q53 4 82 39t58 141.5t69 337.5q17 109 117 668l20 109l-213 -13q0 51 14 68l11 8l204 27q42 257 190.5 406t348.5 149q105 0 165 -38t60 -104q0 -3 -4 -39h6q72 108 179 165t227 57q140 0 241 -76l87 51
l30 -18l-114 -467q-31 -132 -70 -252l-107 -330h15q156 273 272 389q116 119 242 119q125 0 125 -125q0 -61 -54 -229l-127 -377q-18 -58 -18 -74t16 -16q29 0 99 55q73 57 129 125l12 -4q-11 -64 -31 -121q-66 -78 -155 -137q-91 -60 -164 -60q-41 0 -64.5 22t-23.5 54
t47 178l121 367q53 157 53 197q0 45 -35 45q-48 5 -143 -100.5t-197.5 -270t-177.5 -330.5q-32 -71 -57 -143l-15 -8q-6 -2 -28 -2q-58 0 -80 36q18 57 69 258q160 624 263 1051q-31 54 -82 82.5t-115 28.5q-146 0 -233 -129.5t-132 -393.5q57 11 80 11l209 4
q-6 -58 -31 -94l-10 -7l-262 5q-65 -355 -119 -623q-34 -170 -64.5 -276.5t-80.5 -198.5q-125 -238 -346 -238q-152 0 -152 76q0 60 39 131l17 4q122 -96 208 -96q55 3 85.5 37.5t60.5 142t69 338.5q45 289 121 715q-58 -10 -125 -10h-323q-111 -595 -133 -699
q-34 -168 -65 -275.5t-81 -199.5q-59 -112 -146.5 -174.5t-199.5 -62.5q-151 0 -151 75zM467 926h328q26 167 100 303q-18 78 -74 126t-125 48q-143 0 -221.5 -118t-128.5 -370q64 11 121 11z" />
    <glyph glyph-name="f_f_i.liga" unicode="ffi" horiz-adv-x="1755" 
d="M-444 -500q0 62 38 131l17 4q49 -43 108.5 -69.5t104.5 -26.5q53 4 82 39t58 141.5t69 337.5q17 109 117 668l20 109l-213 -13q0 51 14 68l11 8l204 27q38 239 185.5 397t353.5 158q104 0 164 -37t61 -103q0 -9 -4 -41h6q157 222 426 222q115 0 197 -43t82 -103
q0 -53 -46.5 -100.5t-107.5 -67.5l-16 13q-14 117 -56 170t-126 53q-111 0 -205 -113q-97 -118 -146 -416q88 12 234 15l278 6q14 2 47 2q62 0 62 -45q0 -54 -51 -213l-144 -465q-22 -71 -22 -82t3 -13.5t13 -2.5q26 0 89 50t128 126l13 -4q-11 -64 -31 -121
q-73 -88 -153.5 -140.5t-145.5 -52.5q-38 0 -65 20.5t-27 51.5q0 22 16 84l21 72l124 420l15 51q31 98 31 121q0 19 -10 26.5t-33 7.5l-404 7q-65 -355 -119 -623q-34 -170 -64.5 -276.5t-80.5 -198.5q-125 -238 -346 -238q-152 0 -152 76q0 60 39 131l17 4q122 -96 208 -96
q55 3 85.5 37.5t60.5 142t69 338.5q45 289 121 715q-58 -10 -125 -10h-323q-111 -595 -133 -699q-34 -168 -65 -275.5t-81 -199.5q-59 -112 -146.5 -174.5t-199.5 -62.5q-151 0 -151 75zM467 926h328l10 49q27 136 94 256q-17 80 -72 126t-133 46q-140 0 -219 -119.5
t-129 -368.5q64 11 121 11z" />
    <glyph glyph-name="f_f_j.liga" unicode="ffj" horiz-adv-x="1724" 
d="M-444 -500q0 62 38 131l17 4q49 -43 108.5 -69.5t104.5 -26.5q53 4 82 39t58 141.5t69 337.5q17 109 117 668l20 109l-213 -13q0 51 14 68l11 8l204 27q38 239 185.5 397t353.5 158q104 0 163.5 -38t61.5 -104q0 -3 -4 -39h6q75 109 185 165.5t245 56.5
q108 0 191.5 -44.5t83.5 -101.5q0 -53 -46.5 -100.5t-107.5 -67.5l-16 13q-15 223 -168 223q-271 0 -363 -527q32 7 191 13q196 8 364 8q62 0 62 -47q0 -24 -29 -156q-3 -11 -7 -31l-13 -55l-113 -495q-48 -207 -85 -321t-93 -198q-126 -193 -402 -208q-40 27 -61 67l8 10
q84 -1 156 23t117 69q65 62 110 189q41 117 101 377l100 446q33 138 33 187q0 34 -45 34l-408 7q-65 -355 -119 -623q-34 -170 -64.5 -276.5t-80.5 -198.5q-125 -238 -346 -238q-152 0 -152 76q0 60 39 131l17 4q122 -96 208 -96q55 3 85.5 37.5t60.5 142t69 338.5
q45 289 121 715q-58 -10 -125 -10h-323q-111 -595 -133 -699q-34 -168 -65 -275.5t-81 -199.5q-59 -112 -146.5 -174.5t-199.5 -62.5q-151 0 -151 75zM467 926h328l10 49q27 136 94 256q-17 80 -72 126t-133 46q-140 0 -219 -119.5t-129 -368.5q64 11 121 11z" />
    <glyph glyph-name="f_f_k.liga" unicode="ffk" horiz-adv-x="2254" 
d="M-444 -500q0 62 38 131l17 4q49 -43 108.5 -69.5t104.5 -26.5q53 4 82 39t58 141.5t69 337.5q17 109 117 668l20 109l-213 -13q0 51 14 68l11 8l204 27q42 257 190.5 406t348.5 149q104 0 164.5 -38t60.5 -104q0 -7 -4 -39h6q72 108 179 165t227 57q140 0 241 -76l87 51
l30 -18l-94 -387q-49 -206 -82 -310q-59 -189 -102 -309h12q250 465 512 465q82 0 126 -42t44 -108q0 -113 -104 -206t-302 -156v-8q60 -122 140 -269q15 -24 32 -24q23 0 81 62.5t118 152.5l14 -4q7 -63 5 -94q-61 -103 -138 -183q-81 -84 -143 -84q-36 0 -57.5 18.5
t-48.5 65.5q-42 69 -148 287q-10 23 -45 23q5 32 31 69l10 8q211 72 299 148t88 178q0 74 -55 74q-53 4 -153.5 -94t-211 -267.5t-178.5 -345.5l-57 -145l-15 -8q-6 -2 -28 -2q-58 0 -80 36q81 285 170 648l137 559q21 89 23 106q-30 50 -81.5 78.5t-109.5 28.5
q-148 0 -235.5 -130.5t-133.5 -392.5q57 11 86 11l203 4q-6 -58 -31 -94l-10 -7l-262 5q-65 -355 -119 -623q-34 -170 -64.5 -276.5t-80.5 -198.5q-125 -238 -346 -238q-152 0 -152 76q0 60 39 131l17 4q51 -43 108.5 -69.5t99.5 -26.5q19 0 23 2q45 14 70 47.5t54.5 141.5
t65.5 327q40 258 123 715q-58 -10 -125 -10h-323q-111 -595 -133 -699q-34 -168 -65 -275.5t-81 -199.5q-59 -112 -146.5 -174.5t-199.5 -62.5q-151 0 -151 75zM467 926h328q26 167 100 303q-18 78 -74 126t-125 48q-143 0 -221.5 -118t-128.5 -370q64 11 121 11z" />
    <glyph glyph-name="f_f_l.liga" unicode="ffl" horiz-adv-x="1814" 
d="M-444 -500q0 62 38 131l17 4q49 -43 108.5 -69.5t104.5 -26.5q53 4 82 39t58 141.5t69 337.5q17 109 117 668l20 109l-213 -13q0 51 14 68l11 8l204 27q42 257 190.5 406t348.5 149q104 0 165.5 -38t61.5 -100q0 -22 -6 -43h6q72 108 179 165t227 57q140 0 241 -76l87 51
l30 -18l-289 -1196q-32 -122 -32 -152q0 -25 20 -25q29 0 87 48t155 149l12 -4q-11 -64 -31 -121q-80 -93 -165.5 -148t-155.5 -55q-43 0 -73 24t-30 60q0 30 31 148l19 76l254 1046q-31 54 -82 82.5t-115 28.5q-146 0 -233 -129.5t-132 -393.5q57 11 80 11l209 4
q-6 -58 -31 -94l-10 -7l-262 5q-65 -355 -119 -623q-34 -170 -64.5 -276.5t-80.5 -198.5q-125 -238 -346 -238q-152 0 -152 76q0 60 39 131l17 4q51 -43 108.5 -69.5t99.5 -26.5q19 0 23 2q45 14 70 47.5t54.5 141.5t65.5 327q40 258 123 715q-58 -10 -125 -10h-323
q-111 -595 -133 -699q-34 -168 -65 -275.5t-81 -199.5q-59 -112 -146.5 -174.5t-199.5 -62.5q-151 0 -151 75zM467 926h328q26 167 100 303q-18 78 -74 126t-125 48q-143 0 -221.5 -118t-128.5 -370q64 11 121 11z" />
    <glyph glyph-name="f_f_t.liga" unicode="fft" horiz-adv-x="1869" 
d="M-444 -500q0 62 38 131l17 4q49 -43 108.5 -69.5t104.5 -26.5q53 4 82 39t58 141.5t69 337.5q17 109 117 668l20 109l-213 -13q0 51 14 68l11 8l204 27q38 239 185.5 397t353.5 158q104 0 164 -37t61 -103q0 -9 -4 -41h6q133 222 398 222q82 0 144 -33t62 -76
q0 -38 -28.5 -76t-75.5 -63l-20 4q-53 170 -154 170q-133 0 -213 -176q-84 -185 -109 -355q57 11 140 11h231h68q31 0 43 28l59 125l29 64l8 6q36 4 123 4l-74 -235q41 8 103 8h172q-16 -61 -35 -86l-11 -6l-243 4l-142 -555l-18 -72q-12 -52 -12 -76q0 -29 28 -29
q31 0 109 66q72 61 145 150l15 -5q3 -45 -6 -100q-82 -108 -178 -176t-175 -68q-52 0 -84 28t-32 77q0 51 45 213l84 321q51 182 51 207q0 17 -17 17h-45q-61 0 -118 -2h-277q-65 -355 -119 -623q-34 -170 -64.5 -276.5t-80.5 -198.5q-125 -238 -346 -238q-152 0 -152 76
q0 60 39 131l17 4q122 -96 208 -96q55 3 85.5 37.5t60.5 142t69 338.5q45 289 121 715q-58 -10 -125 -10h-323q-111 -595 -133 -699q-34 -168 -65 -275.5t-81 -199.5q-59 -112 -146.5 -174.5t-199.5 -62.5q-151 0 -151 75zM467 926h328l6 28q38 172 94 275q-14 73 -71 123.5
t-130 50.5q-140 0 -219 -119.5t-129 -368.5q64 11 121 11z" />
    <glyph glyph-name="f_h.liga" unicode="fh" horiz-adv-x="1671" 
d="M-444 -500q0 62 38 131l17 4q49 -43 108 -69.5t103 -26.5q53 3 82.5 37.5t59.5 142t69 338.5q49 301 135 777l-211 -13q0 51 14 68l11 8l202 27l6 34q47 264 195.5 413t362.5 149q140 0 241 -76l86 51l31 -18l-115 -467q-34 -144 -69 -252l-107 -330h14q155 271 273 389
q116 119 241 119t125 -125q0 -64 -53 -229l-127 -377q-18 -58 -18 -74t16 -16q28 0 98 55q73 57 129 125l13 -4q-11 -64 -31 -121q-65 -77 -156 -137t-163 -60q-41 0 -65 22t-24 54q0 29 48 178l120 367q54 160 54 197q0 45 -35 45q-48 5 -143 -100.5t-197.5 -270
t-177.5 -330.5q-37 -82 -58 -143l-14 -8q-6 -2 -29 -2q-58 0 -80 36q23 75 70 258q142 553 262 1051q-71 111 -186 111q-136 0 -229 -111t-138 -364q-7 -34 -8 -48q57 11 80 11l209 4q-6 -58 -31 -94l-10 -7l-262 5q-98 -523 -133 -697q-34 -168 -65 -275.5t-81 -199.5
q-59 -112 -146.5 -174.5t-199.5 -62.5q-151 0 -151 75z" />
    <glyph glyph-name="f_j.liga" unicode="fj" horiz-adv-x="1114" 
d="M-444 -500q0 62 38 131l17 4q49 -43 108 -69.5t103 -26.5q53 3 82.5 37.5t59.5 142t69 338.5q53 335 135 777l-211 -13q0 51 14 68l11 8l202 27l11 51q47 244 196 393q155 152 385 152q110 0 189 -43q82 -43 82 -103q0 -53 -46.5 -100.5t-107.5 -67.5l-16 13
q-13 109 -54.5 166t-105.5 57q-159 0 -248 -160q-88 -158 -123 -367q32 7 191 13q265 8 364 8q62 0 62 -47q0 -24 -29 -156l-21 -88v2l-112 -495q-48 -207 -85 -321t-93 -198q-126 -193 -402 -208q-40 27 -61 67l8 10q84 -1 155.5 23t116.5 69q67 64 111 189q38 109 100 377
l101 446q32 134 32 187q0 34 -45 34l-407 7q-82 -450 -133 -697q-34 -168 -65 -275.5t-81 -199.5q-59 -112 -146.5 -174.5t-199.5 -62.5q-151 0 -151 75z" />
    <glyph glyph-name="f_k.liga" unicode="fk" horiz-adv-x="1644" 
d="M-444 -500q0 62 38 131l17 4q49 -43 108 -69.5t103 -26.5q53 3 82.5 37.5t59.5 142t69 338.5q49 301 135 777l-211 -13q0 51 14 68l11 8l202 27l6 34q47 264 195.5 413t362.5 149q140 0 241 -76l86 51l31 -18l-94 -387q-49 -206 -82 -310q-52 -164 -103 -309h13
q250 465 512 465q82 0 126 -42t44 -108q0 -113 -104 -206t-302 -156v-8q68 -140 139 -269q15 -24 33 -24q23 0 81 62.5t118 152.5l14 -4q7 -57 4 -94q-62 -106 -137 -183q-81 -84 -143 -84q-36 0 -58 19t-49 65q-36 60 -147 287q-10 23 -45 23q5 34 30 69l11 8
q211 72 299 148t88 178q0 74 -56 74q-39 3 -109.5 -56t-147.5 -155t-155.5 -229.5t-129.5 -266.5l-58 -145l-14 -8q-6 -2 -29 -2q-58 0 -80 36q81 285 170 648l138 559q18 78 22 106q-31 51 -79.5 79t-104.5 28q-131 0 -222.5 -110.5t-144.5 -364.5l-8 -48q57 11 80 11
l209 4q-6 -58 -31 -94l-10 -7l-262 5q-98 -523 -133 -697q-34 -168 -65 -275.5t-81 -199.5q-59 -112 -146.5 -174.5t-199.5 -62.5q-151 0 -151 75z" />
    <glyph glyph-name="f_t.liga" unicode="ft" horiz-adv-x="1259" 
d="M-444 -500q0 62 38 131l17 4q49 -43 108 -69.5t103 -26.5q54 4 83 38.5t57.5 139t70.5 340.5q69 411 135 777l-211 -13q0 51 14 68l11 8l202 27l6 30q49 248 189 406q142 160 360 160q82 0 144.5 -33t62.5 -76q0 -38 -28.5 -76t-75.5 -63l-21 4q-27 87 -69 128.5
t-107 41.5q-107 0 -178.5 -132t-120.5 -399q68 11 141 11h297q27 0 43 28l88 189l9 6q36 4 123 4l-74 -235q41 8 102 8h172q-16 -61 -35 -86l-10 -6l-244 4l-141 -555l-18 -72q-13 -57 -13 -76q0 -29 29 -29q31 0 109 66q72 61 145 150l14 -5q3 -45 -6 -100
q-83 -108 -178 -176t-174 -68q-52 0 -84.5 28t-32.5 77q0 51 45 213l84 321q51 182 51 207q0 17 -16 17h-45q-62 0 -119 -2h-276q-82 -450 -133 -697q-34 -168 -65 -275.5t-81 -199.5q-59 -112 -146.5 -174.5t-199.5 -62.5q-151 0 -151 75z" />
    <glyph glyph-name="t_t.liga" unicode="tt" horiz-adv-x="1304" 
d="M4 78q0 51 45 213l84 321q51 182 51 207q0 17 -16 17q-74 0 -170 -7q0 41 14 66l6 6l162 25q31 3 43 28q43 88 88 189l8 6q36 4 123 4l-73 -235q41 8 102 8q329 0 358 2q31 0 43 26q36 69 89 189l8 6q36 4 123 4l-74 -235q41 8 102 8h172q-16 -61 -35 -86l-10 -6l-243 4
l-142 -555l-18 -72q-13 -57 -13 -76q0 -29 29 -29q31 0 109 66q72 61 145 150l14 -5q3 -45 -6 -100q-83 -108 -178 -176t-174 -68q-52 0 -84.5 28t-32.5 77q0 47 45 213l84 321q52 195 52 207q0 17 -17 17l-463 2l-141 -555l-18 -72q-13 -57 -13 -76q0 -29 29 -29
q30 0 108 66q75 63 146 150l14 -5q3 -45 -6 -100q-83 -108 -178 -176t-174 -68q-52 0 -84.5 28t-32.5 77z" />
    <glyph glyph-name=".notdef" horiz-adv-x="999" 
d="M53 0v1378h985v-1378h-985zM547 776l334 506h-670zM154 186l333 504l-333 502v-1006zM940 186v1006l-336 -502zM211 98h670l-334 502z" />
    <glyph glyph-name=".null" horiz-adv-x="0" 
 />
    <glyph glyph-name="nonmarkingreturn" horiz-adv-x="682" 
 />
    <glyph glyph-name="CR" unicode="&#xd;" horiz-adv-x="491" 
 />
    <glyph glyph-name="space" unicode=" " horiz-adv-x="491" 
 />
    <glyph glyph-name="exclam" unicode="!" horiz-adv-x="686" 
d="M365 1372l16 10q47 7 96 7q57 0 98 -9q-155 -511 -286 -1011l-8 -7q-26 -20 -86 -16q93 478 170 1026zM70 59q0 55 39.5 92t95.5 37q42 0 70 -29t28 -73q0 -56 -39 -91.5t-96 -35.5q-43 0 -70.5 28.5t-27.5 71.5z" />
    <glyph glyph-name="quotedbl" unicode="&#x22;" horiz-adv-x="808" 
d="M287 1462l16 11q52 10 86 10q33 0 70 -13q-89 -257 -170 -544l-13 -8q-12 -3 -38 -3t-41 3q24 166 90 544zM645 1462l17 11q52 10 86 10q32 0 69 -13q-89 -257 -170 -544l-12 -8q-12 -3 -39 -3q-26 0 -41 3q24 166 90 544z" />
    <glyph glyph-name="numbersign" unicode="#" horiz-adv-x="1323" 
d="M238 -123l-35 -2q-32 0 -60 4l138 301h-230q11 59 37 105l16 8h228l137 301h-254q11 57 37 104l16 9h252l117 256l8 4q35 3 94 -2l-118 -258h286l117 256l6 4q36 3 94 -2l-116 -258h264q-12 -59 -37 -107l-16 -6h-263l-137 -301h289q-12 -59 -37 -107l-16 -6h-287
l-135 -299l-6 -4l-39 -2q-30 0 -58 4l138 301h-287l-135 -299zM432 293h287l137 301h-287z" />
    <glyph glyph-name="dollar" unicode="$" horiz-adv-x="884" 
d="M31 -12l-17 14q-36 282 -39 324l13 10q41 21 67 24q30 -105 66 -182q25 -54 65 -84.5t103 -44.5l69 371q-134 72 -188.5 141.5t-54.5 169.5q0 116 101.5 197t250.5 84l51 272l12 6q30 3 76 -6l-53 -276l78 -13q57 -14 100 -14q33 0 43 2l14 -8q-7 -128 -38 -301l-13 -8
q-44 -7 -47 -7q-17 0 -26 3q0 9 -2 44t-3 60q-6 132 -122 156l-70 -371q120 -64 176.5 -129.5t56.5 -159.5q0 -120 -96 -209t-248 -92l-45 -248l-12 -6q-30 0 -72 10l45 244q-30 1 -78 10.5t-55 10.5q-43 6 -108 6zM389 594l64 334q-75 0 -129 -47.5t-54 -118.5
q0 -55 28 -93.5t91 -74.5zM551 215q0 54 -27 93t-88 71l-63 -334q74 5 126 53.5t52 116.5z" />
    <glyph glyph-name="percent" unicode="%" horiz-adv-x="1712" 
d="M393 -39l-69 45l858 1256h14l70 -45l-858 -1256h-15zM49 772q0 127 46 232.5t135 170t204 64.5q116 0 185 -75.5t69 -200.5q0 -207 -102 -347.5t-254 -140.5q-135 0 -209 79.5t-74 217.5zM539 965q0 196 -113 196q-57 2 -103.5 -37.5t-72 -101t-39 -126.5t-12.5 -122
q0 -115 33 -169t102 -54q108 0 155 133q50 133 50 281zM903 272q0 127 46 232.5t135 170t204 64.5q116 0 185 -75.5t69 -200.5q0 -207 -102 -347.5t-254 -140.5q-135 0 -209 79.5t-74 217.5zM1393 465q0 197 -113 197q-57 2 -103.5 -37.5t-72 -101t-39 -127t-12.5 -122.5
q0 -115 33 -169t102 -54q108 0 155 133q50 133 50 281z" />
    <glyph glyph-name="ampersand" unicode="&#x26;" horiz-adv-x="1890" 
d="M74 506q-3 120 44.5 238.5t123 203.5t171.5 137t187 50q61 0 93 -24.5t32 -66.5q0 -33 -15.5 -62t-50.5 -69l7 -6q282 222 393.5 377t111.5 328q0 37 -10.5 84t-27.5 78l14 14q86 -17 133 -63t47 -113q0 -130 -94 -273q-189 -300 -1012 -815q9 -185 144.5 -304.5
t336.5 -119.5q152 0 279.5 58.5t216 160.5t141.5 239t64 296q-78 38 -105 50.5t-60.5 24t-57.5 11.5q-52 0 -84.5 -31t-32.5 -84q0 -42 24 -81t78 -91v-22q-62 -53 -125 -53q-43 0 -69.5 37t-26.5 98q0 133 82.5 230t204.5 97q55 0 102 -18q46 -17 148 -74q110 -62 158 -83
t83 -21q40 0 62 23t22 57q0 44 -36.5 90t-96.5 76v24q21 12 58 21.5t69 9.5q125 0 125 -121q0 -105 -68 -182.5t-157 -77.5q-88 0 -201 49q-22 -238 -132 -429t-297 -302.5t-417 -108.5q-273 0 -426 146t-153 387zM416 737q102 73 141 121t39 103q0 36 -19.5 54.5
t-52.5 18.5q-44 2 -96 -31.5t-97 -89.5t-76.5 -138t-33.5 -167q124 75 195 129z" />
    <glyph glyph-name="quotesingle" unicode="'" horiz-adv-x="450" 
d="M287 1462l16 11q52 10 86 10q33 0 70 -13q-89 -257 -170 -544l-13 -8q-12 -3 -38 -3t-41 3q24 166 90 544z" />
    <glyph glyph-name="parenleft" unicode="(" horiz-adv-x="950" 
d="M201 383q0 300 166 579t501 549h15q37 -16 57 -57q-279 -229 -427 -503.5t-148 -577.5q0 -198 49 -338q56 -147 170 -314v-12q-27 -37 -72 -53q-156 197 -233.5 368.5t-77.5 358.5z" />
    <glyph glyph-name="parenright" unicode=")" horiz-adv-x="950" 
d="M696 784q0 -300 -166 -579t-501 -549h-15q-37 16 -57 57q279 228 427 503.5t148 578.5q0 201 -51 335q-51 144 -168 316v12q27 37 72 53q156 -197 233.5 -368.5t77.5 -358.5z" />
    <glyph glyph-name="asterisk" unicode="*" horiz-adv-x="802" 
d="M432 868q-30 0 -51 6l47 254l-238 -139l-8 2q-32 37 -35 68l265 151l-189 133v13q21 37 49 59l185 -129l53 246l8 6h25q42 0 57 -6l-45 -250l246 141l8 -2q29 -33 33 -69l-262 -148l188 -141v-12q-17 -33 -47 -56l-197 135l-55 -253l-8 -7q-6 -2 -29 -2z" />
    <glyph glyph-name="plus" unicode="+" horiz-adv-x="1146" 
d="M430 0v358h-319q0 60 12 109l10 6h297v352l10 6h131v-358h320q0 -61 -12 -108l-11 -7h-297v-352l-10 -6h-131z" />
    <glyph glyph-name="comma" unicode="," horiz-adv-x="614" 
d="M-90 -225v12q129 24 203.5 76.5t74.5 128.5q0 48 -29 72t-112 51q-24 9 -24 32q0 54 45.5 89.5t113.5 35.5q69 0 116.5 -52t47.5 -130q0 -132 -101.5 -231.5t-271.5 -141.5q-39 17 -63 58z" />
    <glyph glyph-name="hyphen" unicode="-" horiz-adv-x="806" 
d="M57 471l13 6l561 37q0 -58 -15 -111l-12 -6l-565 -37q0 68 18 111z" />
    <glyph glyph-name="period" unicode="." horiz-adv-x="548" 
d="M14 68q0 63 44 106t110 43q48 0 79.5 -31t31.5 -80q0 -61 -44 -104t-110 -43q-44 0 -77.5 33t-33.5 76z" />
    <glyph glyph-name="slash" unicode="/" horiz-adv-x="774" 
d="M-55 -47l741 1477l12 6h131l-743 -1477l-10 -6h-131z" />
    <glyph glyph-name="zero" unicode="0" horiz-adv-x="1069" 
d="M68 377q-1 94 22.5 186.5t69.5 171.5t107.5 139t143 93.5t169.5 31.5q152 0 236.5 -103.5t84.5 -279.5q2 -111 -31.5 -224.5t-93.5 -208.5t-156 -154t-208 -56q-167 0 -255.5 107.5t-88.5 296.5zM725 635q0 139 -42 209.5t-118 70.5q-64 3 -118.5 -34t-91 -97
t-62.5 -135.5t-37.5 -149.5t-11.5 -139q0 -144 46 -223.5t132 -79.5q69 -3 128.5 52.5t96.5 143t58 188.5t20 194z" />
    <glyph glyph-name="one" unicode="1" horiz-adv-x="856" 
d="M664 -12l-48 2q-208 10 -292 10q-218 0 -351 -8q0 44 15 74l10 6l223 37q53 9 64 61l80 389q34 176 34 195q0 22 -20 22q-22 0 -109 -41q-118 -58 -196 -100q-10 50 -8 88l6 12q175 103 526 271l25 -11q-49 -212 -103 -489l-45 -230q-24 -123 -24 -139q0 -17 7.5 -25
t30.5 -12q72 -16 199 -32q0 -45 -16 -74z" />
    <glyph glyph-name="two" unicode="2" horiz-adv-x="952" 
d="M-14 78l6 10q82 54 110 78l158 121q108 81 184 151q154 140 154 264q0 81 -46 129t-120 48q-84 0 -164.5 -51.5t-144.5 -139.5q-23 44 -23 88l4 15q61 87 164 145q105 63 221 63q130 0 207.5 -72t77.5 -190q0 -85 -43 -155q-37 -64 -119 -140q-54 -49 -247 -200
l-146 -111l2 -6q61 9 158 12q95 6 168 6l258 2q-23 -78 -53 -137l-19 -10l-504 2q-133 0 -215 -6q-25 48 -28 84z" />
    <glyph glyph-name="three" unicode="3" horiz-adv-x="843" 
d="M-156 -332l4 8h25q134 0 249.5 37.5t193.5 101t122.5 146t44.5 172.5q0 95 -49 154t-137 59q-81 0 -164 -51q-33 42 -49 78l6 10q42 13 119 43q178 69 260 139t82 160q0 78 -42 119t-116 41q-83 0 -151 -43t-133 -127q-22 45 -19 92l6 12q63 80 158.5 130t196.5 50
q131 0 202.5 -61t71.5 -166q0 -197 -307 -332v-10q107 -14 173 -85t66 -181q4 -120 -60 -227.5t-170 -181t-239.5 -118t-269.5 -49.5q-53 27 -74 80z" />
    <glyph glyph-name="four" unicode="4" horiz-adv-x="1075" 
d="M408 -344l88 418h-363q-89 0 -168 -6q-25 25 -31 59l3 10l843 867l13 4q36 -5 75 -27q-51 -206 -96 -418l-80 -373h244q-8 -56 -33 -108l-12 -6q-27 -2 -152 -2h-73l-84 -404l-17 -14h-157zM412 190h110l49 232q43 195 76 307h-6l-397 -410l-133 -131v-8q140 10 301 10z
" />
    <glyph glyph-name="five" unicode="5" horiz-adv-x="841" 
d="M-113 -328l4 9q122 -5 236 32t195.5 100t129.5 147t46 169q0 137 -87 208t-257 71q-14 0 -97 -5l-10 17l135 543l23 12h172q222 0 375 14q-20 -85 -68 -145l-18 -10q-118 2 -392 10l-75 -291h43q185 0 297 -97.5t112 -262.5q1 -108 -48.5 -212.5t-137.5 -189t-220 -140
t-284 -63.5q-50 27 -74 84z" />
    <glyph glyph-name="six" unicode="6" horiz-adv-x="970" 
d="M70 403q-3 160 64 323t186 300t295.5 237.5t379.5 133.5h13q44 -26 69 -86q-121 -12 -246.5 -65.5t-235.5 -135.5t-195.5 -196.5t-123.5 -241.5q149 104 297 104q124 0 199.5 -78.5t75.5 -216.5q2 -137 -57.5 -256t-159 -187t-211.5 -65q-165 0 -257.5 113.5t-92.5 316.5
zM674 440q0 222 -170 222q-115 0 -242 -89q-16 -98 -16 -178q0 -168 47.5 -252t132.5 -84q100 0 174 109t74 272z" />
    <glyph glyph-name="seven" unicode="7" horiz-adv-x="935" 
d="M-147 -385q467 657 876 1202l-4 8q-71 -8 -231 -8h-441q24 95 51 144l15 8h624q120 0 181 6q18 -15 24 -49v-11q-46 -49 -84 -104q-125 -169 -358 -506q-199 -288 -471 -696l-25 -19q-93 0 -157 25z" />
    <glyph glyph-name="eight" unicode="8" horiz-adv-x="952" 
d="M10 289q0 229 336 389q-102 89 -149 168.5t-47 179.5q0 143 119.5 245.5t289.5 102.5q152 0 240 -77.5t88 -198.5q0 -136 -88 -224q-86 -89 -246 -184q118 -105 169.5 -187.5t51.5 -172.5q0 -141 -115 -249t-282 -108q-165 0 -266 89t-101 227zM737 1075
q0 98 -50.5 154.5t-137.5 56.5q-100 0 -174 -67.5t-74 -163.5q0 -87 46 -160.5t136 -146.5q129 69 191.5 149t62.5 178zM623 301q0 82 -53 155.5t-160 157.5q-246 -126 -246 -315q0 -108 63.5 -174t159.5 -66q101 0 168.5 67.5t67.5 174.5z" />
    <glyph glyph-name="nine" unicode="9" horiz-adv-x="966" 
d="M-217 -334l4 8q177 14 345 104t288 227t170 292q-50 -33 -117.5 -53.5t-128.5 -20.5q-134 0 -218.5 87.5t-84.5 226.5q-2 95 36 183t101 149t143 96.5t160 33.5q164 0 245 -104t81 -285q3 -177 -71.5 -353t-202 -315t-305 -235t-371.5 -119q-54 28 -74 78zM606 395
q31 121 31 238q0 278 -160 278q-104 0 -183 -97.5t-79 -250.5q0 -105 56 -166t149 -61q97 0 186 59z" />
    <glyph glyph-name="colon" unicode=":" horiz-adv-x="462" 
d="M-20 68q0 63 43.5 106t109.5 43q48 0 79.5 -31t31.5 -80q0 -61 -44 -104t-110 -43q-44 0 -77 33t-33 76zM123 748q0 63 43.5 106t109.5 43q48 0 79.5 -31t31.5 -80q0 -61 -44 -104t-110 -43q-44 0 -77 33t-33 76z" />
    <glyph glyph-name="semicolon" unicode=";" horiz-adv-x="589" 
d="M-86 -225v12q129 24 204 76.5t75 128.5q0 48 -29.5 72t-112.5 51q-24 9 -24 32q0 54 45.5 89.5t113.5 35.5q69 0 116.5 -52t47.5 -130q0 -132 -101.5 -231.5t-271.5 -141.5q-39 17 -63 58zM186 748q0 63 44 106t110 43q48 0 79.5 -31t31.5 -80q0 -61 -44 -104t-110 -43
q-44 0 -77.5 33t-33.5 76z" />
    <glyph glyph-name="less" unicode="&#x3c;" horiz-adv-x="1146" 
d="M879 -12l-770 379v104l6 8l774 361v-125l-10 -10l-617 -281v-6l627 -303v-119z" />
    <glyph glyph-name="equal" unicode="=" horiz-adv-x="1146" 
d="M166 668l10 6h758q0 -62 -12 -109l-11 -6h-757q0 59 12 109zM166 270l10 6h758q0 -62 -12 -108l-11 -6h-757q0 58 12 108z" />
    <glyph glyph-name="greater" unicode="&#x3e;" horiz-adv-x="1146" 
d="M174 840l770 -379v-105l-6 -8l-774 -360v125l10 10l617 280v7l-627 303v118z" />
    <glyph glyph-name="question" unicode="?" horiz-adv-x="831" 
d="M141 625q0 82 42 133t134 82l215 73q85 29 122.5 71.5t37.5 109.5q0 74 -54 123t-130 49q-104 0 -211 -82l-18 12q7 101 50.5 155t112.5 54q136 0 240 -93.5t104 -226.5q0 -243 -241 -327l-47 -17l-136 -47q-66 -25 -93 -55.5t-27 -81.5q0 -43 20 -137l-6 -12
q-21 -15 -49 -15l-17 2q-20 53 -34.5 120t-14.5 110zM90 59q0 55 39.5 92t95.5 37q42 0 70.5 -29t28.5 -73q0 -56 -39.5 -91.5t-96.5 -35.5q-43 0 -70.5 28.5t-27.5 71.5z" />
    <glyph glyph-name="at" unicode="@" horiz-adv-x="1947" 
d="M94 291q0 274 137 487q136 212 361 334q227 121 463 121q131 2 245.5 -32.5t197.5 -96t142.5 -144t88.5 -178t28 -196.5q4 -144 -75 -277.5t-207 -212.5t-263 -76q-91 0 -138.5 29.5t-47.5 85.5q0 84 92 273h-10q-135 -163 -277 -271q-137 -104 -231 -104
q-43 0 -72.5 29.5t-29.5 72.5q0 114 131 307q106 160 248 275q141 112 260 112q102 0 159 -63h7l51 80l12 4q48 6 84 -14q-110 -225 -213 -465q-55 -131 -55 -201q0 -53 73 -53q64 -2 133.5 32.5t128.5 93t96.5 148t35.5 187.5q0 241 -172 399t-435 158q-129 2 -250 -41.5
t-216.5 -123t-167 -184t-109 -229t-35.5 -252.5q0 -288 191.5 -454t537.5 -166q232 0 457 98q8 -9 11.5 -18t4 -17t0.5 -27l-4 -8q-96 -53 -238 -88t-280 -35q-394 0 -622 185t-228 516zM1110 498q41 52 57 80l37 59q-4 42 -43.5 74t-83.5 32q-68 0 -154.5 -93t-162.5 -244
q-22 -46 -51 -121q-27 -70 -27 -99q0 -30 29 -30q44 0 155.5 92.5t243.5 249.5z" />
    <glyph glyph-name="A" unicode="A" horiz-adv-x="1476" 
d="M-70 63l7 7l83 22q49 12 79.5 33.5t54.5 62.5q390 696 495 877q47 81 74 123q84 136 119 205l14 8q70 16 168 22l25 -247l106 -1024q1 -28 13 -41.5t36 -18.5q57 -15 109 -22q-3 -42 -17 -74l-10 -6l-43 2q-104 8 -199 8q-75 0 -235 -10q0 41 14 73l8 5l109 24
q43 12 43 49q0 61 -35 379q-75 -10 -162 -10h-321l-160 -301q-26 -48 -26 -70q0 -26 30 -35q69 -23 127 -36q-3 -44 -18 -68l-15 -8q-164 8 -253 8q-81 0 -234 -10q0 45 14 73zM664 614h274l-39 381q-9 78 -20 215h-19l-125 -211q-99 -170 -217 -393q52 8 146 8z" />
    <glyph glyph-name="B" unicode="B" horiz-adv-x="1251" 
d="M-12 68l10 6q58 11 104 24q48 14 50 43q19 104 51 240l73 356l74 357q31 149 31 168q0 20 -29 26q-62 15 -119 21q2 19 21 75l10 7q97 -5 207 -5l90 3q132 4 168 4q221 0 328 -72q51 -32 80.5 -88t29.5 -123q0 -124 -82 -216.5t-229 -148.5v-10q130 -21 197 -94
q73 -79 73 -199q0 -93 -40.5 -177t-110.5 -140q-168 -131 -420 -131q-24 0 -176 4l-164 2q-160 0 -248 -8q2 33 21 76zM864 852q54 38 87.5 103.5t33.5 134.5q0 108 -65 161q-66 54 -209 54q-59 0 -113 -7q-30 -3 -39 -36q-10 -41 -33 -150l-14 -65q-30 -130 -55 -269
q50 -4 149 -4q148 0 258 78zM840 180q48 43 75 110.5t27 137.5q0 59 -22 110.5t-64 82.5q-86 65 -256 65q-88 0 -162 -6l-82 -404q-18 -95 -18 -120q0 -40 37 -52q80 -22 188 -22q80 0 153 25.5t124 72.5z" />
    <glyph glyph-name="C" unicode="C" horiz-adv-x="1417" 
d="M104 573q-2 183 63.5 341.5t180 268t273.5 171t340 59.5q89 0 239 -27q115 -16 141 -16q42 0 52 2l12 -14q-25 -192 -66 -373l-8 -12q-30 -15 -88 -12q4 118 4 155q0 105 -68 155t-221 50q-134 2 -258 -54t-215.5 -153.5t-145 -237t-50.5 -294.5q0 -237 129 -376.5
t346 -139.5q149 0 215 38q59 32 116.5 115t96.5 189l10 8q49 -18 72 -47q-36 -141 -115 -344l-20 -13q-94 -8 -109 -10l-43 -6l-86 -12q-90 -11 -149 -11q-315 0 -481.5 152.5t-166.5 447.5z" />
    <glyph glyph-name="D" unicode="D" horiz-adv-x="1562" 
d="M-12 68l10 6l104 24q46 12 52 43l122 596l70 336q3 9 7.5 34.5t8.5 39.5q19 100 19 115q0 12 -5.5 16.5t-23.5 9.5l-119 21q2 19 21 75l10 7q107 -5 207 -5q13 0 57.5 2t73.5 3l125 2q224 0 363.5 -41.5t226.5 -134.5q70 -73 105.5 -179.5t35.5 -228.5q0 -173 -70.5 -332
t-203.5 -280q-218 -203 -619 -203q-49 0 -209 4l-147 2q-154 0 -242 -8q2 33 21 76zM1071 285q96 101 148.5 240t52.5 272q0 262 -131.5 384t-413.5 122q-37 0 -115 -5q-26 -2 -37.5 -11.5t-17.5 -35.5q-72 -322 -113 -530l-82 -420q-20 -103 -20 -139q0 -45 45 -60
q55 -18 191 -18q301 0 493 201z" />
    <glyph glyph-name="E" unicode="E" horiz-adv-x="1251" 
d="M-10 68l10 6l121 30q27 9 33 39l206 990q23 118 23 129q0 10 -3.5 13.5t-14.5 8.5q-48 16 -129 25q7 51 20 75l10 7q205 -5 475 -5q317 0 480 13l10 -8q-27 -223 -51 -371l-9 -10q-30 -9 -84 -9q0 135 -2 164q-1 71 -19.5 95.5t-70.5 29.5q-74 6 -180 6q-55 0 -207 -4
q-25 -2 -36 -11t-15 -34l-100 -499q70 4 98 4h117q74 0 98 53q31 60 55 119l6 4q4 2 23 2q28 0 61 -10q-57 -235 -69 -455l-8 -6q-34 -7 -80 -4q-3 56 -19 133q-8 39 -24.5 54t-52.5 15h-226l-57 -280q-37 -179 -37 -219q0 -34 21.5 -49t66.5 -15h299q93 0 141.5 27t85.5 90
q38 65 78 172l13 8q37 -8 67 -35q-38 -193 -88 -354l-14 -8l-74 2q-168 4 -236 4h-485q-117 0 -248 -8q2 33 21 76z" />
    <glyph glyph-name="F" unicode="F" horiz-adv-x="1155" 
d="M-12 68l10 6q72 16 121 30q27 9 33 39q60 273 122 590l70 342l18 88q19 93 19 101q0 16 -21 20q-62 17 -127 25q6 48 21 75l10 7q132 -5 271 -5h188q237 0 473 13l12 -10q-29 -249 -47 -359l-8 -10q-41 -15 -84 -12q2 29 2 125q0 93 -18 124.5t-74 36.5q-98 4 -162 4
q-39 0 -207 -4q-25 -2 -38 -12.5t-17 -34.5q-32 -149 -72 -352l-32 -160q78 4 104 4h172q53 0 72 41q54 119 59 131l6 4q6 3 25 3q17 0 59 -11q-57 -235 -69 -454l-9 -7q-30 -6 -79 -6q-9 67 -25 164q-9 39 -68 39h-268l-82 -407q-16 -82 -16 -99q0 -18 8.5 -26.5
t32.5 -12.5q47 -10 155 -26q-9 -58 -18 -76l-6 -4q-145 8 -289 8q-147 0 -248 -8q2 33 21 76z" />
    <glyph glyph-name="G" unicode="G" horiz-adv-x="1521" 
d="M104 573q-3 175 65 333t184.5 269.5t276 176t333.5 61.5q120 0 276 -27q106 -16 131 -16q33 0 43 2l12 -14q-18 -140 -63 -375l-8 -12q-23 -13 -70 -13q-19 0 -22 3q2 14 2 81q0 73 -2 91q-4 99 -75 143.5t-218 44.5q-137 2 -262.5 -54.5t-218.5 -154.5t-147 -237.5
t-52 -294.5q0 -244 134.5 -380.5t346.5 -136.5q140 0 238 39q22 8 32 39l35 160l10 55q17 87 17 99q0 17 -8 25t-33 14q-58 12 -164 24q9 59 21 80l8 6q135 -6 268 -6q150 0 270 14q-10 -68 -16 -82l-8 -8l-119 -24q-35 -9 -41 -43l-33 -156q-26 -130 -26 -197q0 -33 2 -41
l-11 -10q-96 -36 -217.5 -57t-232.5 -21q-327 0 -492.5 154t-165.5 446z" />
    <glyph glyph-name="H" unicode="H" horiz-adv-x="1589" 
d="M-10 68l10 6q57 9 121 30q27 9 33 39l206 1008q15 71 15 96q0 19 -9.5 29t-33.5 16q-79 18 -111 23q3 44 19 76l6 4q117 -9 248 -9q133 0 247 9q-3 -41 -20 -76l-10 -6q-72 -14 -121 -31q-14 -5 -21.5 -13t-11.5 -26l-41 -190q0 -1 -7.5 -36.5t-23 -108t-32.5 -156.5
q71 6 147 6h551l80 393q14 66 14 96q0 19 -9.5 29t-33.5 16q-72 17 -110 23q3 49 18 76l6 4q117 -9 248 -9q134 0 248 9q-3 -39 -21 -76l-10 -6q-68 -14 -121 -31q-31 -10 -33 -39l-206 -1007q-15 -77 -15 -99q0 -19 7.5 -27t31.5 -14q57 -15 115 -24q-3 -47 -19 -76l-6 -4
q-104 8 -248 8q-146 0 -247 -8q3 41 20 76l10 6q51 10 121 30q27 9 33 39l106 516q-114 -4 -155 -4h-541l-84 -419q-14 -66 -14 -97q0 -19 9.5 -29t33.5 -16q63 -14 110 -22q-3 -49 -18 -76l-6 -4q-104 8 -248 8q-147 0 -248 -8q3 39 21 76z" />
    <glyph glyph-name="I" unicode="I" horiz-adv-x="718" 
d="M-10 68l10 6q55 8 121 30q27 9 33 39l206 1008q15 71 15 96q0 19 -9.5 29t-33.5 16q-79 18 -111 23q3 44 19 76l6 4q117 -9 248 -9q133 0 247 9q-3 -38 -20 -78l-6 -6q-31 -5 -125 -29q-27 -6 -33 -39l-207 -1007q-14 -66 -14 -97q0 -19 9.5 -29t33.5 -16q61 -15 110 -22
q-3 -49 -18 -76l-6 -4q-104 8 -248 8q-147 0 -248 -8q2 33 21 76z" />
    <glyph glyph-name="J" unicode="J" horiz-adv-x="675" 
d="M-272 -338l8 8q115 25 190 80.5t129 155.5q61 121 109 350l186 895q15 71 15 96q0 33 -43 45q-80 19 -123 23q6 52 18 76l6 4q117 -9 260 -9q138 0 252 9q-3 -36 -20 -76l-10 -6l-125 -31q-27 -9 -33 -39l-207 -993q-53 -265 -160 -410q-136 -194 -399 -241
q-27 15 -53 63z" />
    <glyph glyph-name="K" unicode="K" horiz-adv-x="1396" 
d="M-10 68l10 6q82 15 121 30q27 9 33 39l206 1008q15 71 15 96q0 19 -9.5 29t-33.5 16q-79 18 -111 23q3 38 19 76l6 4q117 -9 248 -9q133 0 247 9q-3 -36 -20 -76l-10 -6q-62 -14 -121 -31q-27 -9 -33 -39l-207 -1007q-14 -66 -14 -97q0 -19 9.5 -29t33.5 -16
q63 -14 110 -22q-9 -58 -18 -76l-6 -4q-104 8 -248 8q-147 0 -248 -8q2 33 21 76zM1094 -2l-93 -2q-69 0 -122 96l-142 256q-79 147 -147 258q-42 68 -82 94l6 29q103 59 168 121l387 356q33 33 33 54q0 12 -6 19t-23 11l-110 25q3 39 20 74l12 6q105 -9 238 -9q139 0 250 9
q0 -35 -15 -76l-6 -6l-73 -21q-73 -23 -138 -80l-526 -467v-10l166 -291l166 -284q36 -58 73 -66q51 -15 109 -24q-10 -45 -20 -70l-13 -6q-94 4 -112 4z" />
    <glyph glyph-name="L" unicode="L" horiz-adv-x="1230" 
d="M-14 68l10 6l104 24q24 6 34.5 15.5t15.5 27.5q19 104 51 240l73 356l91 447q8 36 8 65q0 19 -9.5 29t-33.5 16q-79 18 -111 23q3 44 19 76l6 4q180 -11 248 -11q65 0 241 11q0 -42 -14 -74l-8 -4q-78 -15 -107 -25q-23 -6 -33 -16t-16 -33q-33 -142 -109 -518l-98 -504
q-12 -67 -12 -90q0 -31 26 -37q28 -4 109 -4h225q85 0 140.5 33.5t99.5 105.5q32 48 100 181l13 8q28 -6 69 -47q-49 -157 -121 -371l-12 -8q-95 6 -301 6h-461q-170 0 -258 -8q2 20 21 76z" />
    <glyph glyph-name="M" unicode="M" horiz-adv-x="1906" 
d="M1214 63l9 5l106 22q47 11 55 47l123 791l19 98q16 108 39 205h-13q-91 -138 -235 -373l-326 -536q-46 -72 -104 -185l-21 -12q-41 -16 -127 -12q-15 88 -59 278l-139 588l-31 145q-6 30 -12 57t-8.5 38t-2.5 12h-10l-69 -299l-80 -338l-86 -387q-9 -41 -9 -64
q0 -31 25 -37q86 -24 133 -34q-3 -50 -18 -74l-11 -6q-91 8 -202 8q-143 0 -250 -8q3 51 18 78l11 6q56 11 122 33q28 9 41 65l109 453l61 250q93 372 93 385q0 19 -23 26q-62 15 -117 21q2 38 21 75l10 7q97 -5 188 -5q136 0 189 3q13 -88 43 -220l137 -591
q31 -128 51 -250h8l332 557l99 162q136 219 200 337l13 7l178 -5q92 0 202 7q0 -41 -14 -76l-10 -8l-107 -21q-20 -4 -27 -12.5t-12 -32.5l-137 -919q-24 -156 -24 -189q0 -19 6.5 -26.5t25.5 -12.5q72 -18 136 -28q-3 -41 -17 -70l-12 -6q-101 8 -248 8q-79 0 -256 -10
q0 48 14 73z" />
    <glyph glyph-name="N" unicode="N" horiz-adv-x="1593" 
d="M948 244l-346 717q-72 145 -123 272h-10q-12 -89 -47 -275l-127 -692q-19 -108 -19 -125q0 -27 25 -35q5 -1 133 -34q-3 -50 -18 -74l-10 -6q-91 8 -203 8q-133 0 -240 -8q3 52 19 78l10 6q28 6 110 33q23 7 33.5 22.5t18.5 52.5l172 879q36 174 36 205q0 13 -4.5 18
t-17.5 10l-111 17q6 41 21 71l8 7q88 -5 182 -5q102 0 166 3q33 -100 111 -267l350 -727l25 -51q21 -49 49 -102h12l125 659q59 316 59 348q0 22 -26 31q-37 11 -133 35q3 50 18 74l10 6q102 -9 203 -9q120 0 240 9q-3 -52 -19 -78l-10 -6q-62 -15 -111 -33q-29 -10 -41 -66
q-48 -212 -102 -469l-104 -489l-54 -244l-20 -12q-39 -8 -125 -8q-46 117 -115 254z" />
    <glyph glyph-name="O" unicode="O" horiz-adv-x="1527" 
d="M104 547q-2 132 33.5 261t105.5 238.5t165 193t220.5 129.5t264.5 44q114 0 210 -34.5t167.5 -100.5t112 -171t40.5 -239q2 -129 -31 -259t-99.5 -245.5t-157 -204.5t-213.5 -139t-260 -47q-281 0 -420 160q-138 163 -138 414zM1243 889q0 215 -96 325.5t-262 110.5
q-138 4 -254.5 -68.5t-190.5 -190t-114.5 -260.5t-38.5 -286q0 -194 94 -325q96 -134 287 -134q182 0 313 134q133 133 197 325q65 195 65 369z" />
    <glyph glyph-name="P" unicode="P" horiz-adv-x="1208" 
d="M-10 68l10 6q56 9 102 24q29 7 39 18t15 36l114 567l101 483q10 48 10 62q0 21 -27 24q-58 15 -121 21q5 36 21 75l10 7q87 -5 193 -5q17 0 69 2t80 3l125 2q231 0 347 -82.5t116 -263.5q0 -110 -48.5 -203t-139.5 -156q-140 -96 -371 -96q-63 0 -107 6q-14 28 -22 70
l8 6q49 -6 109 -6q164 0 274 90q113 91 113 274q0 271 -287 271q-66 0 -123 -11q-19 -5 -28 -15t-15 -36q-64 -286 -104 -491l-101 -506q-16 -88 -16 -107q0 -18 9.5 -27.5t33.5 -15.5q64 -14 151 -26q-3 -50 -18 -74l-6 -4q-163 10 -289 10q-147 0 -248 -8q2 33 21 76z" />
    <glyph glyph-name="Q" unicode="Q" horiz-adv-x="1527" 
d="M1081 -317q-112 87 -233 170q-118 84 -227 122q-262 12 -390 170q-127 160 -127 402q-2 132 33.5 261t105.5 238.5t165 193t220.5 129.5t264.5 44q114 0 210 -34.5t167.5 -100.5t112 -171t40.5 -239q1 -120 -24.5 -239t-78.5 -228t-127.5 -195.5t-177.5 -143.5t-222 -70
v-10q100 -28 204 -86l56 -31q38 -24 170 -96q65 -33 106.5 -45.5t93.5 -12.5q105 0 248 70l12 -6q-15 -58 -38 -103q-196 -92 -314 -92q-66 0 -123.5 24t-126.5 79zM1243 889q0 215 -96 325.5t-262 110.5q-138 4 -254.5 -68.5t-190.5 -190t-114.5 -260.5t-38.5 -286
q0 -194 94 -325q96 -134 287 -134q182 0 313 134q133 133 197 325q65 195 65 369z" />
    <glyph glyph-name="R" unicode="R" horiz-adv-x="1288" 
d="M-12 63l10 7q24 6 67 18t50 14q19 6 27 14t12 25l47 230l73 362q105 504 105 531q0 18 -27 24q-54 12 -121 21q6 41 21 75l10 7q190 -5 211 -5q15 0 35.5 1t51 2t52.5 2l111 2q195 0 317 -70q150 -89 150 -274q0 -159 -115 -277q-114 -114 -299 -141v-10l101 -234
q72 -166 108 -237q14 -27 28.5 -39t43.5 -19q47 -15 104 -24q-5 -29 -22 -68l-13 -6q-25 2 -98 2h-100q-36 0 -56 15.5t-38 54.5l-107 247l-104 244q-12 31 -29 44t-49 13q-43 0 -121 4l-84 -415q-14 -66 -14 -78q0 -22 18 -25q60 -15 129 -28q-6 -45 -22 -74l-9 -6
q-107 8 -243 8q-123 0 -230 -8q3 42 19 71zM891 793q115 85 115 239q0 131 -82 201q-84 72 -224 72q-54 0 -100 -9q-21 -5 -29 -12t-14 -29q-32 -141 -49 -229l-64 -305q59 -12 168 -12q169 0 279 84z" />
    <glyph glyph-name="S" unicode="S" horiz-adv-x="1052" 
d="M293 -8l-103 22q-68 15 -133 15l-12 16q-19 150 -35 377l10 12q36 19 70 27q39 -144 70 -207q44 -97 120.5 -142.5t194.5 -45.5q119 0 192.5 74t73.5 192q0 95 -53 163.5t-188 157.5q-158 107 -228 191q-69 87 -69 211q0 157 127 257.5t319 100.5q75 0 201 -27
q94 -20 137 -20l27 2l12 -12q-11 -144 -41 -328l-12 -14q-32 -11 -78 -8q0 48 -4 106q-7 103 -70 156t-174 53q-126 0 -202 -67t-76 -171q0 -65 26 -110q28 -46 73 -84.5t142 -102.5q162 -109 224 -194q67 -88 67 -213q0 -178 -125 -292t-313 -114q-83 0 -170 19z" />
    <glyph glyph-name="T" unicode="T" horiz-adv-x="1323" 
d="M264 66l10 6q41 6 127 26q22 7 33 16t15 31l204 977q19 87 19 125q0 24 -10.5 35t-34.5 12q-54 4 -82 4h-86q-70 0 -101 -8q-38 -10 -60.5 -35t-41.5 -75q-12 -34 -55 -166l-15 -8q-39 3 -80 22q40 222 76 369l17 8q99 -12 180 -14q195 -5 407 -5q225 0 445 5
q91 3 158 12l12 -10q-41 -272 -60 -371l-8 -10q-28 -14 -84 -11q2 39 2 160q0 68 -21 97.5t-75 35.5l-90 4h-55q-48 0 -95 -6q-54 -9 -67 -65l-203 -987q-16 -91 -16 -105q0 -17 7.5 -26t27.5 -13q27 -6 141 -26q-8 -55 -19 -76l-6 -4q-163 10 -268 10q-104 0 -264 -10
q0 33 16 76z" />
    <glyph glyph-name="U" unicode="U" horiz-adv-x="1540" 
d="M193 338q0 101 65 407l76 367q22 110 22 137q0 18 -9.5 27.5t-33.5 15.5q-82 18 -110 23q3 46 18 76l6 4q117 -9 248 -9q134 0 248 9q-3 -35 -21 -76l-10 -6q-17 -3 -106 -27q-26 -8 -35 -17.5t-16 -41.5l-107 -502q-55 -259 -55 -381q0 -272 319 -272q197 0 301 104
q106 112 164 391l111 557q20 97 20 127q0 14 -6.5 21.5t-26.5 13.5q-40 11 -129 29q3 38 19 76l6 4q102 -9 217 -9q114 0 234 9q-3 -39 -21 -76l-10 -6l-107 -27q-19 -4 -27.5 -16.5t-13.5 -38.5l-153 -729q-58 -275 -191 -402q-139 -127 -409 -127q-238 0 -357.5 92.5
t-119.5 272.5z" />
    <glyph glyph-name="V" unicode="V" horiz-adv-x="1433" 
d="M473 305l-172 922q-12 58 -45 67q-62 15 -117 21q6 49 19 76l10 4q150 -9 250 -9q139 0 262 9q0 -46 -14 -78l-9 -4q-64 -7 -127 -19q-47 -9 -47 -53q0 -31 19 -145l94 -531q39 -221 61 -364h13q73 143 202 374l322 578q31 57 31 90q0 19 -10 29t-35 18q-41 13 -121 23
q3 43 18 73l10 7q161 -7 240 -7q112 0 223 9q0 -50 -14 -78l-6 -6q-17 -3 -43.5 -11t-32.5 -10q-27 -8 -49 -30.5t-53 -77.5l-541 -938q-32 -56 -79 -142.5t-54 -99.5l-23 -12q-24 -8 -123 -8q-14 94 -59 323z" />
    <glyph glyph-name="W" unicode="W" horiz-adv-x="2109" 
d="M420 266q0 1 -0.5 7.5t-1.5 13t-2.5 18.5t-3.5 24t-4.5 30t-4.5 36t-5.5 42t-6.5 48l-100 742q-5 32 -15 47.5t-30 19.5q-52 12 -115 19q6 47 19 76l6 4q103 -7 256 -7q147 0 247 7q0 -48 -14 -80l-8 -4l-123 -19q-41 -6 -41 -45q0 -77 21 -241l34 -279q35 -271 47 -518
h11q57 145 172 385l215 457q82 173 129 299l18 10q58 10 144 10l39 -295l63 -483q41 -343 45 -383h10l115 246l66 137l178 375q106 217 106 278q0 19 -7.5 29t-25.5 14q-66 17 -129 25q3 41 19 73l14 7q225 -5 236 -5q137 0 233 7q0 -50 -14 -78l-6 -6q-35 -4 -76 -15
q-40 -11 -64 -33.5t-49 -78.5l-397 -824q-54 -116 -180 -356l-19 -12q-52 -10 -94 -10q-37 0 -47 2l-63 473l-48 362l-34 281h-11l-143 -307l-203 -431q-93 -197 -164 -358l-18 -12q-52 -10 -94 -10q-37 0 -47 2q-2 25 -35 284z" />
    <glyph glyph-name="X" unicode="X" horiz-adv-x="1398" 
d="M-88 70l6 6l94 22q38 11 65 29t62 57l459 504l-279 549q-24 52 -71 61q-75 17 -105 19q3 40 19 72l6 4q133 -7 254 -7q163 0 270 7q0 -46 -14 -78l-8 -4q-63 -7 -113 -15q-41 -6 -41 -39q0 -26 31 -86l178 -354h10l316 344q47 53 47 88q0 32 -35 41q-25 8 -109 21
q3 39 19 71l14 9q147 -5 248 -5q137 0 233 7q0 -48 -14 -76l-6 -6q-34 -2 -84 -17q-50 -14 -109 -73l-479 -502l281 -555q19 -34 33.5 -49.5t37.5 -22.5l28 -7t43.5 -11t47.5 -11q-6 -48 -18 -69l-6 -4q-208 10 -260 10q-103 0 -263 -10q0 38 15 73l8 5q69 9 98 18
q43 12 43 51q0 27 -28 88l-183 373h-10l-328 -383q-36 -42 -36 -70q0 -30 30 -39q66 -22 125 -34q-3 -48 -18 -72l-15 -8q-164 8 -251 8q-153 0 -252 -8q0 50 14 78z" />
    <glyph glyph-name="Y" unicode="Y" horiz-adv-x="1298" 
d="M279 63l8 5l110 24q24 6 34.5 16t14.5 33l76 383q-44 142 -98 295l-143 408q-12 38 -22.5 51t-31.5 18q-49 13 -106 21q6 50 18 76l6 4q229 -11 246 -11q61 0 248 11q0 -46 -14 -78l-9 -4l-112 -21q-27 -6 -37 -15t-10 -28q0 -17 14 -55l104 -299q44 -129 80 -256h9
l346 481q63 88 63 127q0 17 -10.5 27t-36.5 16l-104 23q3 41 18 71l14 9q159 -9 236 -9q154 0 225 9q0 -50 -14 -78l-6 -6l-68 -17q-75 -25 -137 -112l-492 -664l-34 -168q-35 -178 -35 -213q0 -20 9 -29.5t34 -15.5q44 -10 116 -22q-9 -58 -18 -76l-6 -4q-163 10 -254 10
q-86 0 -246 -10q0 38 15 73z" />
    <glyph glyph-name="Z" unicode="Z" horiz-adv-x="1226" 
d="M-92 29l2 10q271 313 397 450l645 705l86 90l-4 6q-32 -4 -100 -4q-322 0 -412 -2q-94 -1 -138 -25.5t-77 -89.5q-29 -56 -69 -172q-53 14 -80 33l-6 14q53 228 86 349l16 8q90 -13 133 -15q94 -4 178 -4h387q121 0 150 2q42 1 164 11q24 -21 24 -60l-2 -10
q-123 -138 -252 -276l-569 -621l-186 -205l-113 -127l4 -8q60 8 195 8h307q97 0 154 27t96 88q42 64 112 219l13 8q33 -9 71 -41q-73 -289 -108 -397l-13 -8q-117 8 -319 8h-518q-140 0 -225 -29q-20 23 -29 58z" />
    <glyph glyph-name="bracketleft" unicode="[" horiz-adv-x="841" 
d="M244 598l116 571l68 334l14 8q35 -2 213 -2q156 0 199 2q0 -47 -16 -90l-9 -6q-111 -2 -247 -14q-28 -3 -35 -33q-58 -290 -166 -776q-99 -463 -143 -684l-23 -109l-2 -12q0 -13 16 -16q130 -16 260 -19q-3 -64 -18 -88l-10 -6q-43 2 -217 2q-170 0 -209 -2
q96 417 209 940z" />
    <glyph glyph-name="backslash" unicode="\" horiz-adv-x="1107" 
d="M852 -47l-737 1477l12 6h129l737 -1477l-12 -6h-129z" />
    <glyph glyph-name="bracketright" unicode="]" horiz-adv-x="841" 
d="M465 571l-117 -571l-67 -334l-15 -8q-35 2 -213 2q-155 0 -198 -2q0 47 16 90l8 6q96 2 248 15q29 3 35 32q60 300 166 777q99 463 143 684l23 108l2 12q0 14 -17 17q-120 15 -260 18q3 62 19 88l10 6q43 -2 217 -2q170 0 209 2q-96 -417 -209 -940z" />
    <glyph glyph-name="asciicircum" unicode="^" horiz-adv-x="1146" 
d="M823 563l-256 479h-24l-248 -469l-12 -6q-26 6 -54 23t-41 35l265 602l12 6h194l265 -608v-9q-30 -30 -101 -53z" />
    <glyph glyph-name="underscore" unicode="_" horiz-adv-x="1064" 
d="M-131 -154l10 7h1010q-9 -62 -27 -103l-12 -6h-1006q3 53 25 102z" />
    <glyph glyph-name="grave" unicode="`" 
d="M668 1061l-369 393v23q90 4 227 -13l199 -354v-12q-6 -11 -22.5 -22t-34.5 -15z" />
    <glyph glyph-name="a" unicode="a" horiz-adv-x="1077" 
d="M-23 119q0 166 95 354q95 191 239 320t287 129q95 0 156 -80h6l47 112l8 7q28 4 70 4q15 0 35 -4q-43 -158 -199 -705q-27 -88 -27 -117q0 -22 17 -22q25 0 83.5 51.5t112.5 120.5l13 -4q-8 -62 -39 -144q-68 -75 -140 -121.5t-123 -46.5q-37 0 -58 19.5t-21 54.5
q0 63 120 414h-18q-127 -201 -276 -344q-147 -144 -250 -144q-57 0 -97.5 42.5t-40.5 103.5zM600 528q62 103 90 189q-18 52 -61.5 85.5t-96.5 33.5q-74 0 -163 -105q-85 -101 -150 -256q-60 -146 -69 -282q-1 -53 9.5 -74t35.5 -21q44 0 167 122t238 308z" />
    <glyph glyph-name="b" unicode="b" horiz-adv-x="1067" 
d="M129 94h-6l-57 -104l-17 -8q-17 0 -38.5 10t-33.5 24q38 107 72 248l232 944q28 115 28 144q0 19 -24 22q-73 11 -109 15q8 36 21 59l6 6q184 28 276 41l31 -18l-121 -482q-40 -168 -151 -508h14q252 449 496 449q79 0 129.5 -59.5t50.5 -157.5q0 -165 -86 -342
q-81 -173 -219 -289q-136 -115 -279 -115q-78 0 -137 34.5t-78 86.5zM754 727q0 117 -60 117q-66 0 -164 -101q-109 -118 -186 -235q-88 -131 -123 -221q-28 -74 -28 -76q1 -72 48 -116t115 -44q87 0 179 115q93 115 155 276q64 162 64 285z" />
    <glyph glyph-name="c" unicode="c" horiz-adv-x="792" 
d="M-12 246q0 147 75 307q75 161 205 272q126 111 271 111q92 0 140 -35t48 -96q0 -42 -31.5 -82t-87.5 -66l-16 2q-9 205 -103 205q-51 4 -110.5 -51t-107.5 -139.5t-79.5 -193t-29.5 -204.5q0 -99 30.5 -145.5t98.5 -46.5q51 0 124.5 48.5t145.5 129.5l12 -4
q-6 -60 -32 -121q-157 -164 -330 -164q-104 0 -163.5 70.5t-59.5 202.5z" />
    <glyph glyph-name="d" unicode="d" horiz-adv-x="1091" 
d="M-27 174q0 226 131 436q84 140 222 232q137 94 266 94q95 0 133 -53h4l84 334q27 108 27 135q0 19 -25 22q-78 12 -110 15q9 39 20 59l6 6q176 27 277 41l30 -18l-182 -746q-29 -125 -57 -221l-41 -158q-41 -178 -41 -209q0 -26 22 -26q32 0 94.5 54t124.5 134l13 -4
q-7 -61 -39 -143q-69 -81 -151 -133t-144 -52q-36 0 -58 24t-22 58q0 58 88 367h-12q-129 -219 -262 -332q-138 -117 -236 -117q-76 0 -119 52t-43 149zM639 590q29 57 57 145q6 61 -16 95t-66 34q-75 4 -165 -71t-160.5 -181t-108.5 -209q-61 -162 -61 -266q0 -32 13 -51.5
t34 -19.5q50 0 126 58t171 181.5t176 284.5z" />
    <glyph glyph-name="e" unicode="e" horiz-adv-x="808" 
d="M-12 262q0 163 88 318q88 156 225 256q135 100 264 100q79 0 126.5 -39.5t47.5 -101.5q0 -135 -164 -230q-165 -95 -399 -153q-14 -55 -14 -131q0 -199 125 -199q134 0 284 180l13 -4q-10 -58 -35 -123q-59 -70 -145.5 -116t-170.5 -46q-125 0 -185 70t-60 219zM578 805
q0 59 -52 59q-86 0 -187 -114.5t-146 -268.5q385 137 385 324z" />
    <glyph glyph-name="f" unicode="f" horiz-adv-x="653" 
d="M-444 -500q0 62 38 131l17 4q49 -43 108 -69.5t103 -26.5q53 3 82.5 37.5t59.5 142t69 338.5q53 319 135 777l-211 -13q0 51 14 68l11 8l202 27l6 30q49 235 183 402q132 164 346 164q79 0 132.5 -32t53.5 -77q0 -38 -28.5 -76t-75.5 -63l-21 4q-31 93 -60.5 131.5
t-76.5 38.5q-88 0 -147 -80q-53 -73 -84 -173.5t-66 -277.5q57 11 80 11l209 4q-6 -58 -31 -94l-10 -7l-262 5q-82 -450 -133 -697q-34 -168 -65 -275.5t-81 -199.5q-59 -112 -146.5 -174.5t-199.5 -62.5q-151 0 -151 75z" />
    <glyph glyph-name="g" unicode="g" horiz-adv-x="845" 
d="M-283 -338q0 94 123 157.5t303 63.5q39 0 45 -2v6q-204 76 -204 179q0 44 49.5 89.5t144.5 82.5v8q-81 27 -126.5 87.5t-45.5 149.5q-3 111 56 217t162.5 172.5t217.5 63.5q80 0 154 -47q17 -10 43 -10q75 0 227 36l11 -4q-14 -56 -43 -110q-82 0 -189 8l-2 -6
q33 -50 33 -129q0 -148 -105.5 -277t-265.5 -153q-71 -23 -114.5 -62t-43.5 -76q0 -36 29.5 -64t95.5 -52l134 -49q133 -50 191 -101.5t58 -122.5q0 -73 -62 -140t-174 -109.5t-245 -42.5q-206 0 -331.5 68t-125.5 169zM514 737q0 131 -90 131q-69 4 -128.5 -68t-90 -170
t-29.5 -184q0 -137 90 -137q57 -4 116.5 64.5t96.5 170.5t35 193zM512 -332q0 44 -37 83t-115 67l-53 18q-8 2 -39 2q-168 0 -268 -44t-100 -122t84.5 -125t226.5 -47q125 0 213 49t88 119z" />
    <glyph glyph-name="h" unicode="h" horiz-adv-x="1073" 
d="M489 49q0 29 48 178l120 367q54 160 54 197q0 45 -35 45q-48 5 -143 -100.5t-197.5 -270t-177.5 -330.5q-37 -82 -58 -143l-14 -8q-6 -2 -29 -2q-58 0 -80 36q41 136 70 258l33 125q28 112 97 389t108 435q24 102 24 127q0 19 -24 22q-77 12 -111 15q8 36 21 59l6 6
q169 29 276 41l31 -18l-115 -467q-34 -144 -69 -252l-107 -330h14q155 271 273 389q116 119 241 119t125 -125q0 -64 -53 -229l-127 -377q-18 -58 -18 -74t16 -16q28 0 98 55q73 57 129 125l13 -4q-11 -64 -31 -121q-65 -77 -156 -137t-163 -60q-41 0 -65 22t-24 54z" />
    <glyph glyph-name="i" unicode="i" horiz-adv-x="618" 
d="M322 1270q0 50 34.5 88.5t83.5 38.5q36 0 60 -24t24 -66q0 -50 -34.5 -89.5t-81.5 -39.5q-37 0 -61.5 24.5t-24.5 67.5zM45 45q0 29 14 78l21 70l127 425q10 41 20 66q25 92 25 94q0 15 -12 15q-26 0 -86 -44t-123 -114q-9 35 -6 82l4 14q86 95 172.5 150t154.5 55
q35 0 55.5 -20.5t20.5 -51.5q0 -47 -45 -186l-145 -471q-21 -61 -21 -76q0 -10 3 -13t14 -3q26 0 89 50t128 126l12 -4q-11 -64 -31 -121q-74 -87 -155 -140t-146 -53q-38 0 -64 20.5t-26 51.5z" />
    <glyph glyph-name="j" unicode="j" horiz-adv-x="546" 
d="M276 1270q0 51 36 89t83 38q36 0 60 -24t24 -64q0 -51 -35 -90t-82 -39q-37 0 -61.5 24.5t-24.5 65.5zM-406 -508l9 10q84 -1 155.5 23t116.5 69q67 64 111 189q38 109 100 377l100 446q29 145 29 170q0 17 -12 17q-27 0 -88 -44.5t-125 -113.5q-9 35 -6 82l4 14
q86 95 172.5 150t154.5 55q34 0 55 -20t21 -48q0 -37 -26 -153q-3 -10 -17 -68l-112 -495q-48 -205 -85.5 -319.5t-93.5 -199.5q-126 -193 -401 -208q-42 28 -62 67z" />
    <glyph glyph-name="k" unicode="k" horiz-adv-x="1046" 
d="M520 57q-36 60 -147 287q-10 23 -45 23q5 34 30 69l11 8q211 72 299 148t88 178q0 74 -56 74q-39 3 -109.5 -56t-147.5 -155t-155.5 -229.5t-129.5 -266.5l-58 -145l-14 -8q-6 -2 -29 -2q-58 0 -80 36q76 268 170 652l138 555q24 102 24 127q0 19 -24 22q-77 12 -111 15
q8 36 21 59l6 6q169 29 276 41l31 -18l-94 -387q-72 -296 -199 -662h14q274 508 525 508q82 0 126 -42t44 -108q0 -113 -104 -206t-302 -156v-8q68 -140 139 -269q15 -24 33 -24q23 0 81 62.5t118 152.5l14 -4q7 -57 4 -94q-62 -106 -137 -183q-81 -84 -143 -84
q-36 0 -58 19t-49 65z" />
    <glyph glyph-name="l" unicode="l" horiz-adv-x="600" 
d="M0 57q0 27 12 82l19 70l18 72l176 723q78 326 78 348q0 19 -24 22q-53 9 -111 15q9 39 20 59l7 6q132 21 276 41l31 -18l-289 -1196q-33 -126 -33 -152q0 -25 21 -25q29 0 86 48t155 149l13 -4q-11 -64 -31 -121q-80 -93 -165.5 -148t-156.5 -55q-43 0 -72.5 24t-29.5 60
z" />
    <glyph glyph-name="m" unicode="m" horiz-adv-x="1654" 
d="M1077 49q0 32 47 178l109 340l24 74q41 121 41 152q0 43 -32 43q-60 0 -166 -121q-103 -118 -211 -299q-107 -180 -174 -342l-33 -82l-14 -8q-6 -2 -29 -2q-62 0 -78 36l82 281l76 254q55 186 55 242q0 41 -35 41q-58 0 -159 -119q-104 -120 -211 -299
q-112 -189 -179 -352l-28 -74l-15 -8q-6 -2 -28 -2q-58 0 -80 36l67 250q44 143 99 357q12 35 14 51q25 77 25 100t-15 23q-33 0 -99 -52t-120 -126q-10 47 -8 86l4 14q69 96 158 155.5t164 59.5q35 0 55 -15.5t20 -41.5q0 -39 -14 -88l-18 -62q-73 -230 -88 -287h14
q138 245 260 373q118 121 254 121q49 0 80 -28t31 -72q0 -48 -23 -125q-23 -78 -82 -240l-18 -49h14q131 258 258.5 386t261.5 128q123 0 123 -129q0 -71 -55 -229l-123 -373q-18 -58 -18 -74t16 -16q27 0 88.5 50t132.5 134l12 -4q-12 -70 -30 -121q-72 -88 -157.5 -144.5
t-156.5 -56.5q-41 0 -64.5 22t-23.5 54z" />
    <glyph glyph-name="n" unicode="n" horiz-adv-x="1124" 
d="M547 49q0 32 47 178l121 367q53 157 53 197q0 45 -35 45q-48 5 -143 -100.5t-197.5 -270t-177.5 -330.5q-32 -71 -57 -143l-15 -8q-6 -2 -28 -2q-58 0 -80 36l139 496l25 90q45 151 45 172q0 23 -15 23q-33 0 -99 -52t-120 -126q-10 47 -8 86l4 14q69 96 158 155.5
t164 59.5q35 0 55 -15.5t20 -41.5q0 -52 -32 -148l-97 -303h15q149 268 270 389q119 119 244 119t125 -125q0 -61 -54 -229l-126 -377q-19 -62 -19 -74q0 -16 16 -16q27 0 89 50.5t133 133.5l12 -4q-11 -64 -31 -121q-72 -88 -157 -144.5t-156 -56.5q-41 0 -64.5 22
t-23.5 54z" />
    <glyph glyph-name="o" unicode="o" horiz-adv-x="929" 
d="M-16 279q0 154 77 321q68 146 191 240q125 96 266 96q127 0 200 -77.5t73 -211.5q0 -139 -58 -285q-59 -145 -160 -249q-60 -63 -142 -101.5t-157 -38.5q-142 0 -216 79.5t-74 226.5zM492 219q57 93 91.5 214t34.5 241q0 96 -28 139t-86 43q-77 0 -153 -79.5t-128 -209.5
q-65 -163 -65 -309q0 -106 29 -155.5t94 -49.5q108 0 211 166z" />
    <glyph glyph-name="p" unicode="p" horiz-adv-x="1122" 
d="M-227 -494l10 7q60 6 149 24q22 7 33 16.5t17 32.5l233 1047l14 69q13 57 13 74q0 23 -17 23q-32 0 -96 -51.5t-119 -126.5q-11 40 -8 86l4 14q67 96 155 155.5t161 59.5q75 0 75 -68q0 -35 -47 -221l-51 -192h14q103 240 227 360.5t255 120.5q80 0 134 -58t54 -155
q0 -152 -80 -332q-77 -176 -213 -297t-295 -121q-78 0 -162 37l-63 -307l-10 -47q-15 -68 -15 -86q0 -30 37 -33q70 -4 189 -4q-5 -34 -31 -78l-10 -6q-178 2 -574 -14q0 29 17 71zM809 735q0 53 -18.5 81t-51.5 28q-35 2 -95.5 -47.5t-126.5 -132.5t-131.5 -205.5
t-104.5 -249.5q-24 -87 -25 -94q23 -26 68.5 -46t83.5 -20q88 -6 184.5 105.5t158 275.5t58.5 305z" />
    <glyph glyph-name="q" unicode="q" horiz-adv-x="1024" 
d="M195 -494l10 7q95 13 160 24q40 6 49 49l84 353q48 198 143 469h-14q-127 -212 -249 -323.5t-222 -111.5q-75 0 -124.5 58.5t-49.5 146.5q0 165 88 342q85 172 229 297q137 119 281 119q112 0 168 -68h6l59 86l10 4q48 0 78 -12l-39 -153l-49 -193q-107 -426 -115 -463
l-75 -344l-15 -61q-28 -131 -28 -162q0 -27 26 -33q38 -9 86 -12q-10 -53 -22 -74l-6 -6q-232 0 -490 -12q2 30 21 73zM557 434q106 172 133 311q-11 58 -38 86.5t-77 28.5q-86 0 -188 -108q-96 -104 -166 -267q-65 -157 -65 -290q0 -61 14 -87t45 -26q57 0 156 102
q93 99 186 250z" />
    <glyph glyph-name="r" unicode="r" horiz-adv-x="827" 
d="M57 18l66 275q61 277 70 325q26 127 26 158q0 10 -6 17.5t-14 7.5q-26 0 -72 -45t-96 -119q-16 39 -13 88l5 14q56 85 126.5 141t129.5 56q40 0 63 -23t23 -61q0 -52 -66 -295l-61 -223h20q156 343 250 469.5t201 132.5q49 0 77.5 -27t28.5 -80q0 -91 -84 -192h-29
q-14 87 -28.5 119t-40.5 32q-45 0 -127 -133t-223 -436q-46 -95 -103 -227l-14 -8q-6 -2 -29 -2q-58 0 -80 36z" />
    <glyph glyph-name="s" unicode="s" horiz-adv-x="653" 
d="M-84 57q0 59 53 136h23q82 -119 174 -119q55 0 89 39.5t34 97.5q0 39 -18.5 74t-65.5 96q-61 80 -88 137.5t-27 130.5q0 75 51 142.5t127 106t152 38.5q67 0 108 -24t41 -66q0 -30 -15.5 -64.5t-39.5 -58.5h-22q-89 121 -164 121q-40 0 -66 -33.5t-26 -81.5
q0 -62 24 -112t84 -130q52 -67 74 -111.5t22 -92.5q0 -55 -35.5 -114t-91.5 -103q-122 -93 -247 -93q-68 0 -109 24t-41 60z" />
    <glyph glyph-name="t" unicode="t" horiz-adv-x="655" 
d="M4 78q0 52 45 213l84 321q6 21 23 86q28 109 28 121q0 17 -16 17q-74 0 -170 -7q0 41 14 66l6 6l162 25q34 3 43 28l60 125l28 64l8 6q36 4 123 4l-73 -235q41 8 102 8h172q-16 -61 -35 -86l-10 -6l-244 4l-141 -555l-18 -72q-13 -57 -13 -76q0 -29 29 -29q30 0 108 66
q75 63 146 150l14 -5q3 -45 -6 -100q-83 -108 -178 -176t-174 -68q-52 0 -84.5 28t-32.5 77z" />
    <glyph glyph-name="u" unicode="u" horiz-adv-x="1126" 
d="M59 96q0 62 60 248l104 313l21 62q14 43 14 59q0 17 -16 17q-27 0 -87.5 -46.5t-131.5 -125.5q-10 40 -7 82l4 14q75 94 173.5 155.5t173.5 61.5q35 0 55 -18t20 -50q0 -47 -47 -178l-18 -57l-101 -307q-53 -161 -53 -201q0 -35 29 -35q28 -2 83.5 45.5t120 127
t136 194.5t125.5 235q47 99 100 234l17 10q6 2 40 2q42 0 82 -12q-146 -501 -202 -731q-2 -14 -5 -28.5t-4.5 -21.5t-1.5 -10q0 -20 17 -20q55 0 205 184l14 -4q-9 -73 -31 -129q-74 -88 -150 -140.5t-136 -52.5q-36 0 -57 22t-21 60q0 41 26 123l92 283h-16
q-131 -231 -267.5 -359.5t-236.5 -128.5q-52 0 -87.5 34.5t-35.5 88.5z" />
    <glyph glyph-name="v" unicode="v" horiz-adv-x="976" 
d="M70 127q0 35 8.5 74t36.5 137l16 55l70 230q43 136 43 159q0 31 -23 31q-58 0 -209 -174q-9 35 -6 82l4 14q165 201 307 201q42 0 67.5 -24.5t25.5 -63.5q0 -70 -52 -238l-69 -231l-19 -64q-37 -118 -37 -168q0 -31 19.5 -50t46.5 -19q82 -5 182 82.5t168.5 221.5
t63.5 249q0 159 -95 301l11 12q123 0 178 -44t55 -144q0 -180 -98 -363q-99 -181 -246 -301q-146 -119 -285 -119q-72 0 -117.5 43t-45.5 111z" />
    <glyph glyph-name="w" unicode="w" horiz-adv-x="1521" 
d="M70 129q0 56 57 250l70 231q45 145 45 174q0 27 -25 27q-26 0 -83 -48t-124 -124q-6 21 -6 82l4 14q75 96 157.5 148.5t158.5 52.5q40 0 63 -23t23 -59q0 -66 -58 -258l-69 -238q-13 -40 -15 -47q-37 -101 -37 -157q0 -64 58 -64q55 0 150.5 100t197.5 265l35 57
q48 77 71 164l13 67q5 64 16 97q21 94 111 94q65 0 65 -64q0 -47 -53 -163q-34 -66 -43 -105q-64 -229 -64 -387q0 -68 20.5 -98.5t63.5 -30.5q58 0 131.5 54t139.5 149q114 164 114 362q0 150 -92 277l11 16q123 0 179 -44.5t56 -147.5q0 -90 -43 -220q-42 -126 -121 -243
q-95 -140 -217 -226q-125 -90 -227 -90q-162 0 -162 164q0 63 57 262h-12q-97 -174 -225 -299q-133 -127 -234 -127q-72 0 -114.5 41.5t-42.5 114.5z" />
    <glyph glyph-name="x" unicode="x" horiz-adv-x="1101" 
d="M-76 74q0 72 66 151h22q40 -114 97 -114q47 0 110.5 72t181.5 257l-122 326q-13 33 -37 33q-41 0 -144 -176q-23 42 -26 79v17q51 93 118 155t123 62q37 0 60.5 -16.5t40.5 -57.5q31 -80 104 -284h10q130 214 206 286t165 72q49 0 79 -26.5t30 -69.5q0 -90 -74 -158h-23
q-19 65 -33 89t-42 24q-51 0 -109 -64q-65 -71 -168 -242l103 -274l20 -51q21 -53 43 -53q24 0 66.5 53.5t82.5 128.5l15 -4q4 -62 4 -72q0 -33 -2 -41q-45 -83 -109.5 -143t-117.5 -60q-38 0 -64.5 21.5t-46.5 73.5l-35 88q-52 130 -78 200h-8q-137 -219 -227 -303
q-89 -80 -170 -80q-51 0 -81 27t-30 74z" />
    <glyph glyph-name="y" unicode="y" horiz-adv-x="915" 
d="M-287 -516v22q147 41 275 126t225 194q44 54 59 76q-3 155 -18 370q-12 167 -39 381q-11 83 -23 115.5t-36 32.5q-26 0 -59 -48t-83 -157q-29 41 -32 78v14q49 115 114.5 181.5t128.5 66.5q62 0 88.5 -47t40.5 -172q38 -310 47 -629h11q116 183 175.5 346.5t59.5 329.5
q0 92 -18 160l16 10q87 -11 124.5 -41.5t37.5 -93.5q0 -45 -20.5 -123t-64 -189.5t-128.5 -261t-197 -301.5q-170 -233 -336 -383q-74 -68 -116 -90t-88 -22q-70 0 -144 55z" />
    <glyph glyph-name="z" unicode="z" horiz-adv-x="935" 
d="M299 20q-142 69 -170 77q-18 5 -33 5q-34 0 -64 -28t-81 -105h-8q-43 20 -59.5 33t-16.5 31q0 21 18 39q195 202 322 317q125 112 295 252q13 11 34 28t35.5 28.5t26.5 19.5l51 39l-2 6q-38 -14 -80 -14q-57 0 -153 45q-107 45 -152 45q-48 0 -85.5 -27t-37.5 -63
q0 -59 123 -86v-23q-23 -34 -57.5 -56t-61.5 -22q-48 0 -81 35t-33 90q0 91 88.5 170.5t193.5 79.5q61 0 273 -59l82 -23q42 -10 55 -10q19 0 37 12q15 9 78 64l10 2q29 -12 65 -66l-178 -145q-235 -191 -387 -320q-135 -115 -231 -215l4 -4q71 23 127 23q44 0 74.5 -12.5
t91.5 -51.5q127 -80 174 -80q25 0 38 20t13 52q0 76 -76 170l6 12q27 6 64 6q135 0 135 -92q0 -90 -77 -178t-165 -88q-60 0 -103 13.5t-122 53.5z" />
    <glyph glyph-name="braceleft" unicode="{" horiz-adv-x="856" 
d="M141 -96q0 70 21 149q17 66 69 219l25 70q23 71 23 107q0 52 -39 80t-134 38q0 45 15 80l6 4q99 -1 154.5 44t66.5 118q25 187 45 391q19 180 127.5 265t319.5 85l55 -2q2 -4 2 -24q0 -26 -6 -53l-10 -9q-152 5 -232 -60t-98 -218l-21 -191q-4 -58 -16 -166
q-7 -83 -64 -144t-145 -85v-10q63 -25 91 -58.5t28 -87.5q0 -57 -43 -196l-25 -84q-31 -97 -43 -150.5t-12 -107.5q0 -86 52 -131.5t163 -59.5q-6 -49 -22 -75l-13 -7q-162 14 -251 83t-89 186z" />
    <glyph glyph-name="bar" unicode="|" horiz-adv-x="434" 
d="M-131 -565l434 2054l12 6h131l-438 -2054l-10 -6h-129z" />
    <glyph glyph-name="braceright" unicode="}" horiz-adv-x="856" 
d="M635 1284q0 -62 -23 -149q-26 -98 -67 -220l-25 -71q-22 -64 -22 -105q0 -52 38.5 -80t133.5 -38q0 -45 -15 -80l-6 -4q-99 1 -154.5 -44t-66.5 -118q-25 -187 -45 -391q-19 -180 -127 -265.5t-319 -85.5l-56 2q-2 4 -2 25q0 26 6 53l11 8q152 -5 231.5 60.5t97.5 218.5
l21 190q4 58 16 166q7 83 64 144.5t145 85.5v10q-64 25 -91.5 58.5t-27.5 86.5q0 58 43 197l25 84q31 97 43 150.5t12 107.5q0 86 -52 131t-163 59q5 48 23 76l12 6q162 -14 251 -82.5t89 -185.5z" />
    <glyph glyph-name="asciitilde" unicode="~" horiz-adv-x="1146" 
d="M-8 457q52 106 135.5 168.5t181.5 62.5q26 0 56.5 -5.5t55 -12.5t54 -18.5t45 -18.5t38.5 -17.5t24 -11.5q127 -59 198 -59q74 0 121 33.5t84 109.5l12 2q30 -30 52 -72q-36 -99 -108 -155.5t-169 -56.5t-252 67l-39 16q-73 33 -113 45.5t-77 12.5q-63 0 -127.5 -44
t-108.5 -116l-12 -2q-28 28 -51 72z" />
    <glyph glyph-name="uni00A0" unicode="&#xa0;" horiz-adv-x="491" 
 />
    <glyph glyph-name="exclamdown" unicode="&#xa1;" horiz-adv-x="686" 
d="M442 774q0 -55 -39.5 -92t-95.5 -37q-41 0 -69.5 29.5t-28.5 73.5q0 56 39 91t96 35q43 0 70.5 -28.5t27.5 -71.5zM147 -539l-16 -10q-41 -6 -96 -6q-62 0 -98 8q153 505 286 1012l8 6q26 20 86 16q-93 -478 -170 -1026z" />
    <glyph glyph-name="cent" unicode="&#xa2;" horiz-adv-x="1005" 
d="M317 -326l56 299q-152 13 -234 114t-82 267q-3 109 39.5 215t112.5 183t161 125.5t181 52.5l57 311l13 6q29 3 75 -6l-57 -309q116 -7 191 -58t75 -114q0 -43 -26.5 -80.5t-85.5 -79.5l-27 4q-12 197 -148 227l-139 -747q163 -3 324 143l12 -4q-6 -57 -33 -121
q-60 -54 -145.5 -87.5t-179.5 -41.5l-56 -303l-12 -6q-30 0 -72 10zM395 96l137 742q-91 -10 -165 -79.5t-112 -168t-38 -201.5q0 -118 44.5 -194t133.5 -99z" />
    <glyph glyph-name="sterling" unicode="&#xa3;" horiz-adv-x="1175" 
d="M496 43q-31 22 -58 47q-51 40 -72.5 52t-46.5 12q-29 0 -55 -13q-54 -51 -103.5 -80.5t-80.5 -29.5q-34 0 -58 27t-24 61q0 66 238 90q34 37 47 123q4 27 14 164q-68 -11 -141 -11h-68q9 51 27 86l10 11h178l4 75q6 101 45.5 181t103 128.5t141 73.5t163.5 25
q96 0 156.5 -26.5t60.5 -67.5q0 -36 -31.5 -77t-85.5 -73l-16 4q-34 83 -73 121.5t-99 38.5q-87 0 -136.5 -75t-56.5 -220l-8 -117q52 9 88 9h256q-12 -62 -24 -86l-11 -11h-319q-4 -41 -19 -112q-13 -54 -40 -92t-78 -76l6 -8q63 36 106 36q38 0 76 -16.5t96 -62.5l25 -20
t36 -28t36.5 -25.5t37.5 -20t29 -3.5q62 0 62 76q0 72 -60 156l10 16q36 4 45 4q64 0 111 -24t47 -60q4 -50 -48 -117.5t-122.5 -113.5t-116.5 -43q-58 0 -95.5 18t-108.5 74z" />
    <glyph glyph-name="currency" unicode="&#xa4;" horiz-adv-x="1277" 
d="M1016 -23l-156 156q-118 -92 -274 -92q-160 0 -275 92l-153 -153h-8l-93 90l162 166q-72 113 -72 247q0 140 70 244l-147 152v10l88 92l149 -152q123 97 279 97q149 0 268 -90l141 141h11l90 -90l-148 -152q76 -113 76 -252q0 -134 -72 -247l154 -156v-10zM874 483
q0 133 -83 221.5t-205 88.5t-205.5 -88.5t-83.5 -221.5t83.5 -221t205.5 -88t205 88t83 221z" />
    <glyph glyph-name="yen" unicode="&#xa5;" horiz-adv-x="1175" 
d="M238 66l10 6q52 12 90 24q25 9 31 31q16 60 26 121q-59 -15 -164 -15h-172q3 56 13 86l8 11h332l24 121q-70 -9 -145 -9h-201q2 37 14 86l9 11h276l-194 323q-29 45 -54 53q-35 10 -90 17q0 36 19 72l12 6q126 -4 215 -4l229 4q0 -34 -12 -74l-10 -6l-98 -15
q-44 -9 -44 -34q0 -19 37 -80l84 -137q49 -80 66 -117h10l201 223q68 78 76 94q4 10 4 19q0 26 -31 35q-27 9 -98 18q0 41 16 70l10 4q144 -4 217 -4q49 0 193 4q0 -41 -14 -76l-9 -4q-37 -3 -63 -12q-26 -7 -53.5 -29.5t-79.5 -77.5l-275 -285q73 13 140 13h200
q-2 -37 -14 -86l-8 -11h-369l-24 -127q64 15 143 15h240q-2 -31 -15 -86l-8 -11h-377q-16 -88 -16 -102q0 -31 26 -37q18 -5 95 -16q-3 -47 -19 -76l-12 -6q-58 4 -195 4q-49 0 -217 -4q0 40 15 70z" />
    <glyph glyph-name="brokenbar" unicode="&#xa6;" horiz-adv-x="434" 
d="M137 739l148 691l12 6h131l-147 -691l-13 -6h-131zM-88 -324l147 691l11 6h131l-146 -690l-12 -7h-131z" />
    <glyph glyph-name="section" unicode="&#xa7;" horiz-adv-x="1042" 
d="M-119 -348q0 82 68 172h18q46 -75 90.5 -110.5t102.5 -35.5q28 0 53 7q45 80 45 196q0 109 -72 369l-12 41q-40 153 -51 209q-17 90 -17 176q-3 146 52.5 273t150.5 212.5t221.5 133.5t264.5 46q87 0 134.5 -27.5t47.5 -78.5q0 -31 -28.5 -70.5t-69.5 -70.5h-19
q-25 66 -71.5 101.5t-106.5 35.5q-56 0 -86 -23q-14 -49 -14 -118q0 -137 94 -474q36 -129 52 -208.5t17 -159.5q4 -120 -54.5 -246.5t-154.5 -225t-227 -160.5t-262 -58q-166 0 -166 94zM324 -274h6q262 197 262 444q0 158 -57 352q-48 168 -68.5 261.5t-20.5 166.5
q0 104 54 215h-6q-104 -63 -168 -180t-64 -254q0 -120 68 -371q71 -251 71 -348q0 -153 -77 -286z" />
    <glyph glyph-name="dieresis" unicode="&#xa8;" 
d="M274 1253q0 53 35.5 88t87.5 35q37 0 63.5 -26.5t26.5 -61.5q0 -56 -33.5 -92.5t-86.5 -36.5q-40 0 -66.5 27.5t-26.5 66.5zM618 1253q0 54 35.5 88.5t89.5 34.5q36 0 62 -26t26 -62q0 -56 -33.5 -92.5t-86.5 -36.5q-38 0 -65.5 28.5t-27.5 65.5z" />
    <glyph glyph-name="copyright" unicode="&#xa9;" horiz-adv-x="1697" 
d="M121 690q-2 145 55.5 279.5t157.5 233t241.5 156.5t298.5 56q141 2 273 -56t228 -156.5t152.5 -233.5t53.5 -279q3 -145 -54.5 -279t-156.5 -232.5t-238 -156t-292 -55.5q-145 -3 -279.5 55.5t-231.5 157t-154 233t-54 277.5zM1462 692q2 129 -46.5 248.5t-131.5 205
t-197 136t-237 49.5q-123 1 -236.5 -49.5t-196 -136t-131 -205t-46.5 -248.5q-3 -174 80 -323t225 -235t305 -83q164 -3 306.5 83t225.5 235t80 323zM444 688q0 189 122.5 308.5t316.5 119.5q65 0 139 -12q47 -8 80 -8q45 0 53 2l8 -6q13 -190 13 -261l-5 -6
q-35 -18 -69 -18q-11 49 -31 102q-48 117 -178 117q-132 0 -206.5 -90t-74.5 -236q0 -161 80 -250.5t209 -89.5q66 0 106.5 21.5t65.5 69.5q33 74 47 114l4 4q38 -3 68 -20q-17 -143 -37 -242l-14 -8q-53 0 -84 -8q-89 -21 -170 -21q-206 0 -324.5 109.5t-118.5 308.5z" />
    <glyph glyph-name="ordfeminine" unicode="&#xaa;" horiz-adv-x="937" 
d="M57 629q0 111 74 250q81 146 188 235q116 96 226 96q39 0 77.5 -18.5t61.5 -48.5h4l47 88l6 4q28 4 58 4l43 -4q-85 -265 -160 -516q-20 -73 -20 -84q0 -17 16 -17q19 0 61.5 37.5t94.5 98.5l10 -4q-6 -34 -29 -115q-147 -141 -233 -141q-25 0 -42.5 18.5t-17.5 44.5
q0 25 21 86.5t82 224.5h-19q-92 -148 -215 -262q-121 -112 -205 -112q-59 0 -94 38.5t-35 96.5zM561 905q52 82 76 137q-14 39 -53 67t-82 28q-71 0 -135 -82q-68 -86 -109 -195q-41 -115 -41 -190q0 -74 35 -74t129.5 88t179.5 221z" />
    <glyph glyph-name="guillemotleft" unicode="&#xab;" horiz-adv-x="1048" 
d="M-25 436q0 20 7 45l8 8q255 195 469 369h12q43 -34 57 -65q-134 -134 -352 -334v-19q102 -190 180 -360q-22 -28 -73 -45h-13q-144 226 -295 401zM424 436q0 24 6 45l8 8q255 195 469 369h13q43 -34 57 -65q-134 -134 -352 -334v-19q102 -190 180 -360q-22 -28 -74 -45
h-12q-144 226 -295 401z" />
    <glyph glyph-name="logicalnot" unicode="&#xac;" horiz-adv-x="1146" 
d="M743 162v397h-661q0 59 12 109l10 6h779v-506l-11 -6h-129z" />
    <glyph glyph-name="uni00AD" unicode="&#xad;" horiz-adv-x="806" 
d="M57 471l13 6l561 37q0 -58 -15 -111l-12 -6l-565 -37q0 68 18 111z" />
    <glyph glyph-name="registered" unicode="&#xae;" horiz-adv-x="1697" 
d="M121 690q-2 145 55.5 279.5t157.5 233t241.5 156.5t298.5 56q141 2 273 -56t228 -156.5t152.5 -233.5t53.5 -279q3 -145 -54.5 -279t-156.5 -232.5t-238 -156t-292 -55.5q-145 -3 -279.5 55.5t-231.5 157t-154 233t-54 277.5zM1462 692q2 129 -46.5 248.5t-131.5 205
t-197 136t-237 49.5q-123 1 -236.5 -49.5t-196 -136t-131 -205t-46.5 -248.5q-3 -174 80 -323t225 -235t305 -83q164 -3 306.5 83t225.5 235t80 323zM1149 299h-64q-29 0 -42 8t-27 33l-29 45l-49 80l-80 131q-14 22 -53 22q-49 0 -70 3q0 -187 2 -226q0 -15 13 -18l75 -12
q0 -33 -8 -64l-8 -2q-86 4 -137 4q-52 0 -170 -4q0 31 6 61l8 5q26 3 53 12q8 2 10.5 5t2.5 13v129q0 412 -2 461q0 18 -13 21q-35 8 -61 10q0 36 8 67l6 4l148 -2l172 2q164 0 241 -53q78 -56 78 -160q0 -156 -164 -206v-4l82 -140l27 -43q5 -9 51 -78q23 -29 37 -32
q35 -13 57 -17q-3 -30 -16 -53l-6 -4q-10 2 -78 2zM997 862q0 69 -36 105q-39 39 -127 39q-46 0 -86 -5q-13 -3 -13 -20v-279q30 -6 99 -6q163 0 163 166z" />
    <glyph glyph-name="overscore" unicode="&#xaf;" 
d="M254 1276l10 6h524q-3 -57 -22 -104l-12 -7h-529q16 73 29 105z" />
    <glyph glyph-name="degree" unicode="&#xb0;" horiz-adv-x="800" 
d="M127 1065q0 138 99 231t247 93q117 0 191.5 -68t74.5 -174q0 -147 -94 -238q-92 -92 -237 -92q-130 0 -205.5 67.5t-75.5 180.5zM604 1147q0 74 -38.5 118t-104.5 44q-86 0 -142.5 -66.5t-56.5 -169.5q0 -79 42.5 -127.5t113.5 -48.5q85 0 135.5 70t50.5 180z" />
    <glyph glyph-name="plusminus" unicode="&#xb1;" horiz-adv-x="1146" 
d="M428 238v317h-319q0 59 12 109l10 6h297v311l10 6h131v-317h320q0 -62 -12 -109l-11 -6h-297v-311l-10 -6h-131zM121 109l10 6h752q0 -59 -13 -109l-10 -6h-751q0 60 12 109z" />
    <glyph glyph-name="uni00B2" unicode="&#xb2;" horiz-adv-x="759" 
d="M88 725l2 8q130 89 283 207q138 105 194 179.5t56 172.5q0 62 -39 98.5t-103 36.5q-120 0 -235 -133q-16 19 -31 66v10q56 75 141 119.5t176 44.5q121 0 187.5 -57.5t66.5 -153.5q0 -86 -45 -154q-42 -68 -102 -122q-72 -65 -176 -146q-28 -22 -176 -129v-4q65 9 231 12
l207 4q-11 -39 -43 -108l-10 -6q-136 4 -152 4h-278q-87 0 -142 -8q-9 22 -12 59z" />
    <glyph glyph-name="uni00B3" unicode="&#xb3;" horiz-adv-x="757" 
d="M121 649q-24 53 -31 90l6 4q119 -51 223 -51q109 0 178.5 61.5t69.5 153.5q0 62 -37 106t-98 44q-68 0 -141 -43q-17 34 -25 67l4 9q60 18 127 40q111 39 161 85t50 112q0 49 -33 77t-88 28q-123 0 -235 -136q-21 34 -29 66v8q53 72 139.5 118t180.5 46q103 0 165 -48.5
t62 -127.5q0 -136 -207 -223v-9q73 -12 119.5 -64.5t46.5 -125.5q0 -144 -118.5 -236t-280.5 -92q-118 0 -209 41z" />
    <glyph glyph-name="acute" unicode="&#xb4;" 
d="M299 1098v12l260 354q99 12 229 9v-23l-432 -391q-40 10 -57 39z" />
    <glyph glyph-name="uni00B5" unicode="&#xb5;" horiz-adv-x="1028" 
d="M-141 -489q0 50 37 223q42 198 135 536l182 656l16 10q10 2 50 2q49 0 86 -12l-175 -607q-32 -106 -32 -155q0 -25 11 -39t30 -14q56 -5 188.5 166.5t245.5 414.5q47 99 100 234l17 10q10 2 41 2q41 0 81 -12q-102 -357 -188 -670q-19 -82 -22 -121q0 -20 16 -20
q55 0 205 184l14 -4q-9 -73 -31 -129q-74 -88 -150 -140.5t-136 -52.5q-36 0 -57 22t-21 60q0 37 24 119l90 287h-14q-139 -230 -248 -355q-118 -133 -182 -133q-93 0 -96 123h-13q-51 -211 -51 -344q0 -143 58 -262v-18q-63 -29 -144 -29q-36 0 -51.5 15t-15.5 53z" />
    <glyph glyph-name="paragraph" unicode="&#xb6;" horiz-adv-x="1341" 
d="M66 -522q0 79 53 166l22 4q55 -55 98 -80t91 -25q63 0 98 68q37 68 90 301l23 98l26 125q19 87 19 96q0 18 -8 25.5t-31 7.5q-98 0 -184.5 34t-146 89.5t-94 128.5t-34.5 150q0 242 198 376t543 134q245 0 525 -13q-13 -57 -25 -94l-12 -10h-172l-332 -1565l-16 -8h-90
l333 1571q-12 2 -59 2q-45 0 -55 -2q-59 -3 -74 -72l-238 -1102q-49 -233 -108 -329q-102 -164 -297 -164q-143 0 -143 88z" />
    <glyph glyph-name="middot" unicode="&#xb7;" horiz-adv-x="462" 
d="M49 473q0 63 44 106.5t110 43.5q48 0 79 -31t31 -80q0 -61 -43.5 -104t-109.5 -43q-44 0 -77.5 32.5t-33.5 75.5z" />
    <glyph glyph-name="cedilla" unicode="&#xb8;" 
d="M29 -508q-15 53 -17 92l11 8q54 -39 93 -56t81 -17q52 0 80 24t28 64q0 50 -36 88t-115 74l-4 14l165 258l9 4l55 -27l-105 -161q70 -34 113 -89t43 -120q0 -87 -66.5 -146t-168.5 -59q-90 0 -166 49z" />
    <glyph glyph-name="uni00B9" unicode="&#xb9;" horiz-adv-x="708" 
d="M156 739l8 6l147 27q26 6 29 25q9 38 57 280l35 176q19 87 19 90q0 15 -15 15q-16 0 -43 -15q-82 -38 -166 -81q-14 38 -14 77l8 7q181 99 406 188l24 -12q-23 -95 -41 -193l-45 -227l-45 -234q-1 -7 -6.5 -35.5t-5.5 -37.5q0 -20 18 -23q68 -15 144 -27q-9 -44 -21 -69
l-6 -4q-153 6 -244 6q-169 0 -260 -6q5 23 17 67z" />
    <glyph glyph-name="ordmasculine" unicode="&#xba;" horiz-adv-x="933" 
d="M82 750q0 128 63 239q65 116 154 175t213 59q116 0 184 -65t68 -171q0 -102 -48 -210t-126 -183q-105 -100 -256 -100q-114 0 -183 72t-69 184zM498 680q102 156 102 334q0 70 -26 104.5t-70 34.5q-128 0 -211 -201q-47 -112 -47 -229q0 -74 24 -117t68 -43q84 0 160 117
z" />
    <glyph glyph-name="guillemotright" unicode="&#xbb;" horiz-adv-x="1048" 
d="M963 457q0 -21 -7 -45l-8 -9q-278 -213 -469 -368h-12q-43 34 -57 65q134 134 352 334v19q-102 190 -180 360q22 28 73 45h13q144 -226 295 -401zM514 457q0 -24 -6 -45l-8 -9q-278 -213 -469 -368h-13q-43 34 -57 65q134 134 352 334v19q-102 190 -180 360q22 28 74 45
h12q144 -226 295 -401z" />
    <glyph glyph-name="onequarter" unicode="&#xbc;" horiz-adv-x="2062" 
d="M399 -98l-69 45l1059 1550h14l70 -45l-1059 -1550h-15zM78 616l8 7l147 26q26 6 29 25q9 38 57 280l35 176q19 87 19 91q0 14 -15 14q-18 0 -43 -14q-53 -25 -165 -82q-15 41 -15 78l8 6q181 99 406 188l24 -12q-23 -95 -41 -193l-45 -227l-45 -234q-1 -7 -6.5 -35.5
t-5.5 -37.5q0 -20 19 -23q55 -12 143 -26q-9 -46 -21 -70l-6 -4q-153 6 -243 6q-170 0 -261 -6q5 23 17 67zM1292 -6l25 125l18 96h-217q-31 0 -184 -6q-13 16 -23 59l2 8l594 572l13 4q50 0 100 -16q-34 -157 -53 -267l-54 -262h156q-7 -36 -27 -82l-8 -6q-70 -4 -92 -4
h-47l-39 -213l-10 -8h-154zM1225 307h129l26 135q3 16 52 215h-7l-368 -352l2 -4q99 6 166 6z" />
    <glyph glyph-name="onehalf" unicode="&#xbd;" horiz-adv-x="1976" 
d="M399 -98l-69 45l1059 1550h14l70 -45l-1059 -1550h-15zM78 616l8 7l147 26q26 6 29 25q9 38 57 280l35 176q19 87 19 91q0 14 -15 14q-18 0 -43 -14q-53 -25 -165 -82q-15 41 -15 78l8 6q181 99 406 188l24 -12q-23 -95 -41 -193l-45 -227l-45 -234q-1 -7 -6.5 -35.5
t-5.5 -37.5q0 -20 19 -23q55 -12 143 -26q-9 -46 -21 -70l-6 -4q-153 6 -243 6q-170 0 -261 -6q5 23 17 67zM1001 41l3 8q121 83 282 207q138 105 194 179.5t56 172.5q0 62 -38.5 98.5t-102.5 36.5q-121 0 -236 -133q-16 19 -31 66v10q56 75 141.5 119.5t176.5 44.5
q121 0 187.5 -57.5t66.5 -153.5q0 -86 -45 -154q-42 -68 -103 -123q-64 -57 -176 -145q-28 -22 -176 -129v-4q64 9 232 12l206 4q-11 -39 -43 -108l-10 -6q-136 4 -151 4h-279q-86 0 -141 -8q-10 24 -13 59z" />
    <glyph glyph-name="threequarters" unicode="&#xbe;" horiz-adv-x="2111" 
d="M399 -98l-69 45l1059 1550h14l70 -45l-1059 -1550h-15zM47 526q-24 53 -31 90l7 5q121 -52 223 -52q109 0 178.5 61.5t69.5 153.5q0 62 -37.5 106t-98.5 44q-68 0 -141 -43q-15 30 -24 67l4 9q34 10 127 41q111 39 161 84.5t50 111.5q0 49 -33 77t-88 28
q-125 0 -236 -135q-19 32 -28 65v8q53 72 139 118t180 46q103 0 165 -48.5t62 -127.5q0 -136 -207 -223v-8q73 -12 119.5 -65t46.5 -126q0 -144 -118.5 -236t-280.5 -92q-118 0 -209 41zM1292 -6l25 125l18 96h-217q-31 0 -184 -6q-13 16 -23 59l2 8l594 572l13 4
q50 0 100 -16q-34 -157 -53 -267l-54 -262h156q-7 -36 -27 -82l-8 -6q-70 -4 -92 -4h-47l-39 -213l-10 -8h-154zM1225 307h129l26 135q3 16 52 215h-7l-368 -352l2 -4q99 6 166 6z" />
    <glyph glyph-name="questiondown" unicode="&#xbf;" horiz-adv-x="831" 
d="M582 774q0 -55 -40 -92t-96 -37q-41 0 -69.5 29.5t-28.5 73.5q0 56 39 91t96 35q43 0 71 -28.5t28 -71.5zM530 209q0 -82 -42 -133t-134 -82l-215 -74q-85 -29 -122 -71t-37 -109q0 -74 54 -123t130 -49q104 0 211 82l18 -12q-7 -101 -51 -155t-113 -54q-136 0 -240 93.5
t-104 225.5q0 118 60.5 202t181.5 126l47 16l135 47q66 25 93.5 55.5t27.5 81.5q0 44 -20 138l6 12q14 14 49 14q14 0 16 -2q20 -54 34.5 -120t14.5 -109z" />
    <glyph glyph-name="Agrave" unicode="&#xc0;" horiz-adv-x="1476" 
d="M-70 63l7 7l83 22q49 12 79.5 33.5t54.5 62.5q390 696 495 877q47 81 74 123q84 136 119 205l14 8q70 16 168 22l25 -247l106 -1024q1 -28 13 -41.5t36 -18.5q57 -15 109 -22q-3 -42 -17 -74l-10 -6l-43 2q-104 8 -199 8q-75 0 -235 -10q0 41 14 73l8 5l109 24
q43 12 43 49q0 61 -35 379q-75 -10 -162 -10h-321l-160 -301q-26 -48 -26 -70q0 -26 30 -35q69 -23 127 -36q-3 -44 -18 -68l-15 -8q-164 8 -253 8q-81 0 -234 -10q0 45 14 73zM664 614h274l-39 381q-9 78 -20 215h-19l-125 -211q-99 -170 -217 -393q52 8 146 8zM1104 1518
l-520 192v25q82 61 182 96l377 -250v-10q-12 -38 -39 -53z" />
    <glyph glyph-name="Aacute" unicode="&#xc1;" horiz-adv-x="1476" 
d="M-70 63l7 7l83 22q49 12 79.5 33.5t54.5 62.5q390 696 495 877q47 81 74 123q84 136 119 205l14 8q70 16 168 22l25 -247l106 -1024q1 -28 13 -41.5t36 -18.5q57 -15 109 -22q-3 -42 -17 -74l-10 -6l-43 2q-104 8 -199 8q-75 0 -235 -10q0 41 14 73l8 5l109 24
q43 12 43 49q0 61 -35 379q-75 -10 -162 -10h-321l-160 -301q-26 -48 -26 -70q0 -26 30 -35q69 -23 127 -36q-3 -44 -18 -68l-15 -8q-164 8 -253 8q-81 0 -234 -10q0 45 14 73zM664 614h274l-39 381q-9 78 -20 215h-19l-125 -211q-99 -170 -217 -393q52 8 146 8zM788 1571
v10l381 246q102 -35 183 -96v-25l-525 -188q-27 15 -39 53z" />
    <glyph glyph-name="Acircumflex" unicode="&#xc2;" horiz-adv-x="1476" 
d="M-70 63l7 7l83 22q49 12 79.5 33.5t54.5 62.5q390 696 495 877q47 81 74 123q84 136 119 205l14 8q70 16 168 22l25 -247l106 -1024q1 -28 13 -41.5t36 -18.5q57 -15 109 -22q-3 -42 -17 -74l-10 -6l-43 2q-104 8 -199 8q-75 0 -235 -10q0 41 14 73l8 5l109 24
q43 12 43 49q0 61 -35 379q-75 -10 -162 -10h-321l-160 -301q-26 -48 -26 -70q0 -26 30 -35q69 -23 127 -36q-3 -44 -18 -68l-15 -8q-164 8 -253 8q-81 0 -234 -10q0 45 14 73zM664 614h274l-39 381q-9 78 -20 215h-19l-125 -211q-99 -170 -217 -393q52 8 146 8zM637 1563
l2 10l309 262h119l12 -6l203 -277q-17 -30 -61 -47h-13l-204 183h-21l-301 -185q-38 25 -45 60z" />
    <glyph glyph-name="Atilde" unicode="&#xc3;" horiz-adv-x="1476" 
d="M-70 63l7 7l83 22q49 12 79.5 33.5t54.5 62.5q390 696 495 877q47 81 74 123q84 136 119 205l14 8q70 16 168 22l25 -247l106 -1024q1 -28 13 -41.5t36 -18.5q57 -15 109 -22q-3 -42 -17 -74l-10 -6l-43 2q-104 8 -199 8q-75 0 -235 -10q0 41 14 73l8 5l109 24
q43 12 43 49q0 61 -35 379q-75 -10 -162 -10h-321l-160 -301q-26 -48 -26 -70q0 -26 30 -35q69 -23 127 -36q-3 -44 -18 -68l-15 -8q-164 8 -253 8q-81 0 -234 -10q0 45 14 73zM664 614h274l-39 381q-9 78 -20 215h-19l-125 -211q-99 -170 -217 -393q52 8 146 8zM616 1595
q132 170 240 170q56 0 152 -41q83 -38 133 -38q73 0 149 108l8 2q29 -40 37 -59q-65 -97 -116 -141t-105 -44q-17 0 -31.5 2t-40.5 10.5t-35 11.5t-51 19q-91 39 -137 39q-67 0 -151 -90l-9 -2q-19 16 -43 53z" />
    <glyph glyph-name="Adieresis" unicode="&#xc4;" horiz-adv-x="1476" 
d="M-70 63l7 7l83 22q49 12 79.5 33.5t54.5 62.5q390 696 495 877q47 81 74 123q84 136 119 205l14 8q70 16 168 22l25 -247l106 -1024q1 -28 13 -41.5t36 -18.5q57 -15 109 -22q-3 -42 -17 -74l-10 -6l-43 2q-104 8 -199 8q-75 0 -235 -10q0 41 14 73l8 5l109 24
q43 12 43 49q0 61 -35 379q-75 -10 -162 -10h-321l-160 -301q-26 -48 -26 -70q0 -26 30 -35q69 -23 127 -36q-3 -44 -18 -68l-15 -8q-164 8 -253 8q-81 0 -234 -10q0 45 14 73zM664 614h274l-39 381q-9 78 -20 215h-19l-125 -211q-99 -170 -217 -393q52 8 146 8zM690 1675
q0 54 35.5 88.5t89.5 34.5q37 0 64.5 -26.5t27.5 -61.5q0 -56 -35 -92.5t-90 -36.5q-40 0 -66 27.5t-26 66.5zM1047 1675q0 54 36.5 88.5t92.5 34.5q36 0 62 -26t26 -62q0 -55 -35 -92t-86 -37q-40 0 -68 28t-28 66z" />
    <glyph glyph-name="Aring" unicode="&#xc5;" horiz-adv-x="1476" 
d="M-70 63l7 7l83 22q49 12 79.5 33.5t54.5 62.5q390 696 495 877q47 81 74 123q84 136 119 205l14 8q70 16 168 22l25 -247l106 -1024q1 -28 13 -41.5t36 -18.5q57 -15 109 -22q-3 -42 -17 -74l-10 -6l-43 2q-104 8 -199 8q-75 0 -235 -10q0 41 14 73l8 5l109 24
q43 12 43 49q0 61 -35 379q-75 -10 -162 -10h-321l-160 -301q-26 -48 -26 -70q0 -26 30 -35q69 -23 127 -36q-3 -44 -18 -68l-15 -8q-164 8 -253 8q-81 0 -234 -10q0 45 14 73zM664 614h274l-39 381q-9 78 -20 215h-19l-125 -211q-99 -170 -217 -393q52 8 146 8zM770 1692
q0 92 69.5 147t176.5 55q84 0 141 -46.5t57 -114.5q0 -95 -67.5 -152t-173.5 -57q-87 0 -145 49t-58 119zM1104 1722q0 41 -28.5 69t-69.5 28q-55 0 -90 -32.5t-35 -88.5q0 -41 30 -70t74 -29q54 0 86.5 33.5t32.5 89.5z" />
    <glyph glyph-name="AE" unicode="&#xc6;" horiz-adv-x="2052" 
d="M-55 63l6 7l110 30q35 11 64 41.5t96 120.5q19 31 31 43l651 879q55 76 55 94q0 17 -24 20l-117 15q6 31 21 71l10 7q337 -5 618 -5q375 0 555 13l11 -8q-24 -196 -52 -371l-8 -10q-30 -9 -84 -9q0 132 -2 152q-5 83 -21 108t-69 29q-74 6 -180 6q-47 0 -207 -4
q-42 0 -51 -45l-101 -499q70 4 99 4h117q74 0 98 53q31 60 55 119l6 4q6 2 29 2q22 0 55 -10q-57 -235 -69 -455l-9 -6q-33 -7 -79 -4q-3 56 -19 133q-8 39 -25 54t-53 15h-225l-57 -280l-21 -103q-16 -88 -16 -116q0 -34 21.5 -49t66.5 -15h299q93 0 141.5 27t85.5 90
q38 65 78 172l12 8q38 -8 68 -35q-38 -193 -88 -354l-15 -8l-73 2q-168 4 -236 4h-485q-157 0 -248 -8q2 33 21 76l10 6q82 15 121 30q26 9 32 39l107 516q-20 -2 -111 -2h-295l-256 -344q-66 -87 -86 -119.5t-20 -56.5t31 -33q25 -9 161 -36q-3 -44 -18 -68l-14 -8
q-131 8 -295 8q-81 0 -228 -10q0 38 15 73zM864 752h217l80 381l31 151h-82q-136 -196 -248 -348l-145 -197q89 13 147 13z" />
    <glyph glyph-name="Ccedilla" unicode="&#xc7;" horiz-adv-x="1417" 
d="M104 573q-2 183 63.5 341.5t180 268t273.5 171t340 59.5q89 0 239 -27q115 -16 141 -16q42 0 52 2l12 -14q-25 -192 -66 -373l-8 -12q-30 -15 -88 -12q4 118 4 155q0 105 -68 155t-221 50q-134 2 -258 -54t-215.5 -153.5t-145 -237t-50.5 -294.5q0 -237 129 -376.5
t346 -139.5q149 0 215 38q59 32 116.5 115t96.5 189l10 8q49 -18 72 -47q-36 -141 -115 -344l-20 -13q-94 -8 -109 -10l-43 -6l-86 -12q-90 -11 -149 -11q-315 0 -481.5 152.5t-166.5 447.5zM434 -508q-13 48 -16 92l10 8q54 -39 93 -56t81 -17q52 0 80.5 24t28.5 64
q0 50 -36.5 88t-115.5 74l-4 14l166 258l8 4l55 -27l-104 -161q70 -34 113 -89t43 -120q0 -87 -67 -146t-169 -59q-90 0 -166 49z" />
    <glyph glyph-name="Egrave" unicode="&#xc8;" horiz-adv-x="1251" 
d="M-10 68l10 6l121 30q27 9 33 39l206 990q23 118 23 129q0 10 -3.5 13.5t-14.5 8.5q-48 16 -129 25q7 51 20 75l10 7q205 -5 475 -5q317 0 480 13l10 -8q-27 -223 -51 -371l-9 -10q-30 -9 -84 -9q0 135 -2 164q-1 71 -19.5 95.5t-70.5 29.5q-74 6 -180 6q-55 0 -207 -4
q-25 -2 -36 -11t-15 -34l-100 -499q70 4 98 4h117q74 0 98 53q31 60 55 119l6 4q4 2 23 2q28 0 61 -10q-57 -235 -69 -455l-8 -6q-34 -7 -80 -4q-3 56 -19 133q-8 39 -24.5 54t-52.5 15h-226l-57 -280q-37 -179 -37 -219q0 -34 21.5 -49t66.5 -15h299q93 0 141.5 27t85.5 90
q38 65 78 172l13 8q37 -8 67 -35q-38 -193 -88 -354l-14 -8l-74 2q-168 4 -236 4h-485q-117 0 -248 -8q2 33 21 76zM979 1518l-520 192v25q82 61 182 96l377 -250v-10q-12 -38 -39 -53z" />
    <glyph glyph-name="Eacute" unicode="&#xc9;" horiz-adv-x="1251" 
d="M-10 68l10 6l121 30q27 9 33 39l206 990q23 118 23 129q0 10 -3.5 13.5t-14.5 8.5q-48 16 -129 25q7 51 20 75l10 7q205 -5 475 -5q317 0 480 13l10 -8q-27 -223 -51 -371l-9 -10q-30 -9 -84 -9q0 135 -2 164q-1 71 -19.5 95.5t-70.5 29.5q-74 6 -180 6q-55 0 -207 -4
q-25 -2 -36 -11t-15 -34l-100 -499q70 4 98 4h117q74 0 98 53q31 60 55 119l6 4q4 2 23 2q28 0 61 -10q-57 -235 -69 -455l-8 -6q-34 -7 -80 -4q-3 56 -19 133q-8 39 -24.5 54t-52.5 15h-226l-57 -280q-37 -179 -37 -219q0 -34 21.5 -49t66.5 -15h299q93 0 141.5 27t85.5 90
q38 65 78 172l13 8q37 -8 67 -35q-38 -193 -88 -354l-14 -8l-74 2q-168 4 -236 4h-485q-117 0 -248 -8q2 33 21 76zM664 1571v10l380 246q102 -35 183 -96v-25l-525 -188q-26 14 -38 53z" />
    <glyph glyph-name="Ecircumflex" unicode="&#xca;" horiz-adv-x="1251" 
d="M-10 68l10 6l121 30q27 9 33 39l206 990q23 118 23 129q0 10 -3.5 13.5t-14.5 8.5q-48 16 -129 25q7 51 20 75l10 7q205 -5 475 -5q317 0 480 13l10 -8q-27 -223 -51 -371l-9 -10q-30 -9 -84 -9q0 135 -2 164q-1 71 -19.5 95.5t-70.5 29.5q-74 6 -180 6q-55 0 -207 -4
q-25 -2 -36 -11t-15 -34l-100 -499q70 4 98 4h117q74 0 98 53q31 60 55 119l6 4q4 2 23 2q28 0 61 -10q-57 -235 -69 -455l-8 -6q-34 -7 -80 -4q-3 56 -19 133q-8 39 -24.5 54t-52.5 15h-226l-57 -280q-37 -179 -37 -219q0 -34 21.5 -49t66.5 -15h299q93 0 141.5 27t85.5 90
q38 65 78 172l13 8q37 -8 67 -35q-38 -193 -88 -354l-14 -8l-74 2q-168 4 -236 4h-485q-117 0 -248 -8q2 33 21 76zM512 1563l2 10l309 262h119l12 -6l203 -277q-17 -30 -61 -47h-13l-204 183h-21l-301 -185q-38 25 -45 60z" />
    <glyph glyph-name="Edieresis" unicode="&#xcb;" horiz-adv-x="1251" 
d="M-10 68l10 6l121 30q27 9 33 39l206 990q23 118 23 129q0 10 -3.5 13.5t-14.5 8.5q-48 16 -129 25q7 51 20 75l10 7q205 -5 475 -5q317 0 480 13l10 -8q-27 -223 -51 -371l-9 -10q-30 -9 -84 -9q0 135 -2 164q-1 71 -19.5 95.5t-70.5 29.5q-74 6 -180 6q-55 0 -207 -4
q-25 -2 -36 -11t-15 -34l-100 -499q70 4 98 4h117q74 0 98 53q31 60 55 119l6 4q4 2 23 2q28 0 61 -10q-57 -235 -69 -455l-8 -6q-34 -7 -80 -4q-3 56 -19 133q-8 39 -24.5 54t-52.5 15h-226l-57 -280q-37 -179 -37 -219q0 -34 21.5 -49t66.5 -15h299q93 0 141.5 27t85.5 90
q38 65 78 172l13 8q37 -8 67 -35q-38 -193 -88 -354l-14 -8l-74 2q-168 4 -236 4h-485q-117 0 -248 -8q2 33 21 76zM565 1675q0 54 35.5 88.5t89.5 34.5q37 0 64.5 -26.5t27.5 -61.5q0 -56 -35 -92.5t-90 -36.5q-40 0 -66 27.5t-26 66.5zM922 1675q0 54 36.5 88.5t92.5 34.5
q36 0 62 -26t26 -62q0 -55 -35 -92t-86 -37q-40 0 -68 28t-28 66z" />
    <glyph glyph-name="Igrave" unicode="&#xcc;" horiz-adv-x="718" 
d="M-10 68l10 6q55 8 121 30q27 9 33 39l206 1008q15 71 15 96q0 19 -9.5 29t-33.5 16q-79 18 -111 23q3 44 19 76l6 4q117 -9 248 -9q133 0 247 9q-3 -38 -20 -78l-6 -6q-31 -5 -125 -29q-27 -6 -33 -39l-207 -1007q-14 -66 -14 -97q0 -19 9.5 -29t33.5 -16q61 -15 110 -22
q-3 -49 -18 -76l-6 -4q-104 8 -248 8q-147 0 -248 -8q2 33 21 76zM659 1518l-520 192v25q81 61 183 96l376 -250v-10q-12 -38 -39 -53z" />
    <glyph glyph-name="Iacute" unicode="&#xcd;" horiz-adv-x="718" 
d="M-10 68l10 6q55 8 121 30q27 9 33 39l206 1008q15 71 15 96q0 19 -9.5 29t-33.5 16q-79 18 -111 23q3 44 19 76l6 4q117 -9 248 -9q133 0 247 9q-3 -38 -20 -78l-6 -6q-31 -5 -125 -29q-27 -6 -33 -39l-207 -1007q-14 -66 -14 -97q0 -19 9.5 -29t33.5 -16q61 -15 110 -22
q-3 -49 -18 -76l-6 -4q-104 8 -248 8q-147 0 -248 -8q2 33 21 76zM344 1571v10l381 246q100 -35 182 -96v-25l-524 -188q-27 15 -39 53z" />
    <glyph glyph-name="Icircumflex" unicode="&#xce;" horiz-adv-x="718" 
d="M-10 68l10 6q55 8 121 30q27 9 33 39l206 1008q15 71 15 96q0 19 -9.5 29t-33.5 16q-79 18 -111 23q3 44 19 76l6 4q117 -9 248 -9q133 0 247 9q-3 -38 -20 -78l-6 -6q-31 -5 -125 -29q-27 -6 -33 -39l-207 -1007q-14 -66 -14 -97q0 -19 9.5 -29t33.5 -16q61 -15 110 -22
q-3 -49 -18 -76l-6 -4q-104 8 -248 8q-147 0 -248 -8q2 33 21 76zM193 1563l2 10l309 262h119l12 -6l203 -277q-16 -29 -62 -47h-12l-205 183h-20l-301 -185q-38 25 -45 60z" />
    <glyph glyph-name="Idieresis" unicode="&#xcf;" horiz-adv-x="718" 
d="M-10 68l10 6q55 8 121 30q27 9 33 39l206 1008q15 71 15 96q0 19 -9.5 29t-33.5 16q-79 18 -111 23q3 44 19 76l6 4q117 -9 248 -9q133 0 247 9q-3 -38 -20 -78l-6 -6q-31 -5 -125 -29q-27 -6 -33 -39l-207 -1007q-14 -66 -14 -97q0 -19 9.5 -29t33.5 -16q61 -15 110 -22
q-3 -49 -18 -76l-6 -4q-104 8 -248 8q-147 0 -248 -8q2 33 21 76zM246 1675q0 54 35.5 88.5t89.5 34.5q37 0 64.5 -26.5t27.5 -61.5q0 -56 -35 -92.5t-90 -36.5q-40 0 -66 27.5t-26 66.5zM602 1675q0 54 36.5 88.5t92.5 34.5q36 0 62 -26t26 -62q0 -55 -35 -92t-86 -37
q-40 0 -68 28t-28 66z" />
    <glyph glyph-name="Eth" unicode="&#xd0;" horiz-adv-x="1562" 
d="M-12 68l10 6l104 24q46 12 52 43l114 553q-40 -6 -108 -6h-90q5 44 22 82l12 10h181l61 293q3 9 7.5 34.5t8.5 39.5q19 100 19 115q0 12 -5.5 16.5t-23.5 9.5l-119 21q2 19 21 75l10 7q107 -5 207 -5q13 0 57.5 2t73.5 3l125 2q224 0 363.5 -41.5t226.5 -134.5
q70 -73 105.5 -179.5t35.5 -228.5q0 -172 -70.5 -329.5t-203.5 -278.5q-226 -207 -619 -207q-49 0 -209 4l-147 2q-154 0 -242 -8q2 33 21 76zM1071 285q96 102 148.5 238.5t52.5 269.5q0 264 -132 387t-413 123q-37 0 -115 -5q-26 -2 -37.5 -11.5t-17.5 -35.5
q-62 -270 -104 -485q52 14 151 14h201q-8 -52 -25 -82l-14 -10h-328l-76 -387q-20 -103 -20 -139q0 -45 45 -60q55 -18 191 -18q301 0 493 201z" />
    <glyph glyph-name="Ntilde" unicode="&#xd1;" horiz-adv-x="1593" 
d="M948 244l-346 717q-72 145 -123 272h-10q-12 -89 -47 -275l-127 -692q-19 -108 -19 -125q0 -27 25 -35q5 -1 133 -34q-3 -50 -18 -74l-10 -6q-91 8 -203 8q-133 0 -240 -8q3 52 19 78l10 6q28 6 110 33q23 7 33.5 22.5t18.5 52.5l172 879q36 174 36 205q0 13 -4.5 18
t-17.5 10l-111 17q6 41 21 71l8 7q88 -5 182 -5q102 0 166 3q33 -100 111 -267l350 -727l25 -51q21 -49 49 -102h12l125 659q59 316 59 348q0 22 -26 31q-37 11 -133 35q3 50 18 74l10 6q102 -9 203 -9q120 0 240 9q-3 -52 -19 -78l-10 -6q-62 -15 -111 -33q-29 -10 -41 -66
q-48 -212 -102 -469l-104 -489l-54 -244l-20 -12q-39 -8 -125 -8q-46 117 -115 254zM623 1595q132 170 239 170q56 0 152 -41q83 -38 133 -38q73 0 149 108l9 2q26 -37 36 -59q-65 -97 -116 -141t-105 -44q-7 0 -14 0.5t-13 1t-14.5 2.5t-13.5 3t-14.5 4.5t-14.5 5
t-16.5 5.5t-16.5 6t-19.5 7.5t-20.5 7.5q-91 39 -138 39q-67 0 -151 -90l-8 -2q-19 16 -43 53z" />
    <glyph glyph-name="Ograve" unicode="&#xd2;" horiz-adv-x="1527" 
d="M104 547q-2 132 33.5 261t105.5 238.5t165 193t220.5 129.5t264.5 44q114 0 210 -34.5t167.5 -100.5t112 -171t40.5 -239q2 -129 -31 -259t-99.5 -245.5t-157 -204.5t-213.5 -139t-260 -47q-281 0 -420 160q-138 163 -138 414zM1243 889q0 215 -96 325.5t-262 110.5
q-138 4 -254.5 -68.5t-190.5 -190t-114.5 -260.5t-38.5 -286q0 -194 94 -325q96 -134 287 -134q182 0 313 134q133 133 197 325q65 195 65 369zM1098 1518l-520 192v25q82 61 182 96l377 -250v-10q-12 -38 -39 -53z" />
    <glyph glyph-name="Oacute" unicode="&#xd3;" horiz-adv-x="1527" 
d="M104 547q-2 132 33.5 261t105.5 238.5t165 193t220.5 129.5t264.5 44q114 0 210 -34.5t167.5 -100.5t112 -171t40.5 -239q2 -129 -31 -259t-99.5 -245.5t-157 -204.5t-213.5 -139t-260 -47q-281 0 -420 160q-138 163 -138 414zM1243 889q0 215 -96 325.5t-262 110.5
q-138 4 -254.5 -68.5t-190.5 -190t-114.5 -260.5t-38.5 -286q0 -194 94 -325q96 -134 287 -134q182 0 313 134q133 133 197 325q65 195 65 369zM782 1571v10l381 246q102 -35 183 -96v-25l-525 -188q-27 15 -39 53z" />
    <glyph glyph-name="Ocircumflex" unicode="&#xd4;" horiz-adv-x="1527" 
d="M104 547q-2 132 33.5 261t105.5 238.5t165 193t220.5 129.5t264.5 44q114 0 210 -34.5t167.5 -100.5t112 -171t40.5 -239q2 -129 -31 -259t-99.5 -245.5t-157 -204.5t-213.5 -139t-260 -47q-281 0 -420 160q-138 163 -138 414zM1243 889q0 215 -96 325.5t-262 110.5
q-138 4 -254.5 -68.5t-190.5 -190t-114.5 -260.5t-38.5 -286q0 -194 94 -325q96 -134 287 -134q182 0 313 134q133 133 197 325q65 195 65 369zM631 1563l2 10l309 262h119l12 -6l203 -277q-16 -29 -62 -47h-12l-205 183h-20l-301 -185q-38 25 -45 60z" />
    <glyph glyph-name="Otilde" unicode="&#xd5;" horiz-adv-x="1527" 
d="M104 547q-2 132 33.5 261t105.5 238.5t165 193t220.5 129.5t264.5 44q114 0 210 -34.5t167.5 -100.5t112 -171t40.5 -239q2 -129 -31 -259t-99.5 -245.5t-157 -204.5t-213.5 -139t-260 -47q-281 0 -420 160q-138 163 -138 414zM1243 889q0 215 -96 325.5t-262 110.5
q-138 4 -254.5 -68.5t-190.5 -190t-114.5 -260.5t-38.5 -286q0 -194 94 -325q96 -134 287 -134q182 0 313 134q133 133 197 325q65 195 65 369zM610 1595q132 170 240 170q55 0 151 -41q83 -38 134 -38q73 0 149 108l8 2q29 -40 37 -59q-65 -97 -116 -141t-105 -44
q-17 0 -31.5 2t-40.5 10.5t-35 11.5t-51 19q-91 39 -137 39q-67 0 -151 -90l-9 -2q-19 16 -43 53z" />
    <glyph glyph-name="Odieresis" unicode="&#xd6;" horiz-adv-x="1527" 
d="M104 547q-2 132 33.5 261t105.5 238.5t165 193t220.5 129.5t264.5 44q114 0 210 -34.5t167.5 -100.5t112 -171t40.5 -239q2 -129 -31 -259t-99.5 -245.5t-157 -204.5t-213.5 -139t-260 -47q-281 0 -420 160q-138 163 -138 414zM1243 889q0 215 -96 325.5t-262 110.5
q-138 4 -254.5 -68.5t-190.5 -190t-114.5 -260.5t-38.5 -286q0 -194 94 -325q96 -134 287 -134q182 0 313 134q133 133 197 325q65 195 65 369zM684 1675q0 54 35.5 88.5t89.5 34.5q37 0 64.5 -26.5t27.5 -61.5q0 -56 -35 -92.5t-90 -36.5q-40 0 -66 27.5t-26 66.5z
M1040 1675q0 54 36.5 88.5t92.5 34.5q36 0 62 -26t26 -62q0 -55 -34.5 -92t-85.5 -37q-41 0 -69 28.5t-28 65.5z" />
    <glyph glyph-name="multiply" unicode="&#xd7;" horiz-adv-x="1146" 
d="M780 35l-280 287l-279 -283h-8l-80 82l279 287l-273 278v8l78 82l283 -282l276 282h8l80 -82l-278 -286l274 -283v-8z" />
    <glyph glyph-name="Oslash" unicode="&#xd8;" horiz-adv-x="1527" 
d="M82 -37l-2 10l149 174q-125 146 -125 400q-2 132 33.5 261t105.5 238.5t165 193t220.5 129.5t264.5 44q199 0 336 -98q22 31 92 112l59 66q34 -14 74 -59l2 -13l-156 -174q123 -144 123 -379q2 -129 -31 -259t-99.5 -245.5t-157 -204.5t-213.5 -139t-260 -47
q-223 0 -365 109q-51 -78 -92 -129l-45 -51q-22 10 -46 29t-32 32zM545 520l598 703q-95 102 -258 102q-138 4 -254.5 -68.5t-190.5 -190t-114.5 -260.5t-38.5 -286q0 -154 55 -264q93 135 203 264zM1077 311q78 121 122 277.5t44 300.5q0 178 -51 264q-105 -157 -219 -289
l-586 -684q101 -119 281 -119q249 0 409 250z" />
    <glyph glyph-name="Ugrave" unicode="&#xd9;" horiz-adv-x="1540" 
d="M193 338q0 101 65 407l76 367q22 110 22 137q0 18 -9.5 27.5t-33.5 15.5q-82 18 -110 23q3 46 18 76l6 4q117 -9 248 -9q134 0 248 9q-3 -35 -21 -76l-10 -6q-17 -3 -106 -27q-26 -8 -35 -17.5t-16 -41.5l-107 -502q-55 -259 -55 -381q0 -272 319 -272q197 0 301 104
q106 112 164 391l111 557q20 97 20 127q0 14 -6.5 21.5t-26.5 13.5q-40 11 -129 29q3 38 19 76l6 4q102 -9 217 -9q114 0 234 9q-3 -39 -21 -76l-10 -6l-107 -27q-19 -4 -27.5 -16.5t-13.5 -38.5l-153 -729q-58 -275 -191 -402q-139 -127 -409 -127q-238 0 -357.5 92.5
t-119.5 272.5zM1090 1518l-521 192v25q81 61 183 96l376 -250v-10q-12 -39 -38 -53z" />
    <glyph glyph-name="Uacute" unicode="&#xda;" horiz-adv-x="1540" 
d="M193 338q0 101 65 407l76 367q22 110 22 137q0 18 -9.5 27.5t-33.5 15.5q-82 18 -110 23q3 46 18 76l6 4q117 -9 248 -9q134 0 248 9q-3 -35 -21 -76l-10 -6q-17 -3 -106 -27q-26 -8 -35 -17.5t-16 -41.5l-107 -502q-55 -259 -55 -381q0 -272 319 -272q197 0 301 104
q106 112 164 391l111 557q20 97 20 127q0 14 -6.5 21.5t-26.5 13.5q-40 11 -129 29q3 38 19 76l6 4q102 -9 217 -9q114 0 234 9q-3 -39 -21 -76l-10 -6l-107 -27q-19 -4 -27.5 -16.5t-13.5 -38.5l-153 -729q-58 -275 -191 -402q-139 -127 -409 -127q-238 0 -357.5 92.5
t-119.5 272.5zM774 1571v10l381 246q100 -35 182 -96v-25l-524 -188q-27 15 -39 53z" />
    <glyph glyph-name="Ucircumflex" unicode="&#xdb;" horiz-adv-x="1540" 
d="M193 338q0 101 65 407l76 367q22 110 22 137q0 18 -9.5 27.5t-33.5 15.5q-82 18 -110 23q3 46 18 76l6 4q117 -9 248 -9q134 0 248 9q-3 -35 -21 -76l-10 -6q-17 -3 -106 -27q-26 -8 -35 -17.5t-16 -41.5l-107 -502q-55 -259 -55 -381q0 -272 319 -272q197 0 301 104
q106 112 164 391l111 557q20 97 20 127q0 14 -6.5 21.5t-26.5 13.5q-40 11 -129 29q3 38 19 76l6 4q102 -9 217 -9q114 0 234 9q-3 -39 -21 -76l-10 -6l-107 -27q-19 -4 -27.5 -16.5t-13.5 -38.5l-153 -729q-58 -275 -191 -402q-139 -127 -409 -127q-238 0 -357.5 92.5
t-119.5 272.5zM623 1563l2 10l309 262h119l12 -6l203 -277q-16 -29 -62 -47h-12l-205 183h-20l-301 -185q-38 25 -45 60z" />
    <glyph glyph-name="Udieresis" unicode="&#xdc;" horiz-adv-x="1540" 
d="M193 338q0 101 65 407l76 367q22 110 22 137q0 18 -9.5 27.5t-33.5 15.5q-82 18 -110 23q3 46 18 76l6 4q117 -9 248 -9q134 0 248 9q-3 -35 -21 -76l-10 -6q-17 -3 -106 -27q-26 -8 -35 -17.5t-16 -41.5l-107 -502q-55 -259 -55 -381q0 -272 319 -272q197 0 301 104
q106 112 164 391l111 557q20 97 20 127q0 14 -6.5 21.5t-26.5 13.5q-40 11 -129 29q3 38 19 76l6 4q102 -9 217 -9q114 0 234 9q-3 -39 -21 -76l-10 -6l-107 -27q-19 -4 -27.5 -16.5t-13.5 -38.5l-153 -729q-58 -275 -191 -402q-139 -127 -409 -127q-238 0 -357.5 92.5
t-119.5 272.5zM676 1675q0 54 35.5 88.5t89.5 34.5q37 0 64.5 -26.5t27.5 -61.5q0 -56 -35 -92.5t-90 -36.5q-40 0 -66 27.5t-26 66.5zM1032 1675q0 54 36.5 88.5t92.5 34.5q36 0 62 -26t26 -62q0 -55 -35 -92t-86 -37q-40 0 -68 28t-28 66z" />
    <glyph glyph-name="Yacute" unicode="&#xdd;" horiz-adv-x="1298" 
d="M279 63l8 5l110 24q24 6 34.5 16t14.5 33l76 383q-44 142 -98 295l-143 408q-12 38 -22.5 51t-31.5 18q-49 13 -106 21q6 50 18 76l6 4q229 -11 246 -11q61 0 248 11q0 -46 -14 -78l-9 -4l-112 -21q-27 -6 -37 -15t-10 -28q0 -17 14 -55l104 -299q44 -129 80 -256h9
l346 481q63 88 63 127q0 17 -10.5 27t-36.5 16l-104 23q3 41 18 71l14 9q159 -9 236 -9q154 0 225 9q0 -50 -14 -78l-6 -6l-68 -17q-75 -25 -137 -112l-492 -664l-34 -168q-35 -178 -35 -213q0 -20 9 -29.5t34 -15.5q44 -10 116 -22q-9 -58 -18 -76l-6 -4q-163 10 -254 10
q-86 0 -246 -10q0 38 15 73zM653 1571v10l381 246q102 -35 183 -96v-25l-525 -188q-27 15 -39 53z" />
    <glyph glyph-name="Thorn" unicode="&#xde;" horiz-adv-x="1196" 
d="M-10 68l10 6q82 15 121 30q27 9 33 39l206 1008q15 71 15 96q0 19 -9.5 29t-33.5 16q-79 18 -111 23q8 55 19 76l6 4q117 -9 248 -9q133 0 247 9q-3 -36 -20 -76l-10 -6q-76 -14 -121 -31q-27 -9 -33 -39l-31 -143q40 6 148 6q232 0 354 -90q111 -89 111 -262
q0 -131 -71 -233.5t-189 -153.5q-131 -56 -310 -56q-53 0 -96 6q-16 38 -22 70l8 6q49 -6 92 -6q179 0 274 74q129 102 129 268q0 158 -75 221q-78 66 -222 66q-73 0 -120 -6q-36 -3 -39 -33l-148 -741q-14 -66 -14 -97q0 -19 9.5 -29t33.5 -16q63 -14 110 -22
q-9 -58 -18 -76l-6 -4q-104 8 -248 8q-147 0 -248 -8q2 33 21 76z" />
    <glyph glyph-name="germandbls" unicode="&#xdf;" horiz-adv-x="1021" 
d="M-465 -500q0 60 39 131l16 4q47 -41 109 -68.5t106 -27.5q50 0 80 43q30 40 57.5 144t69.5 331q86 471 148 838q54 323 218 479t417 156q147 0 239 -69t92 -171q0 -73 -36 -123q-34 -47 -82 -80.5t-148 -87.5l-41 -20q-192 -104 -192 -225q0 -56 23 -108t75 -132l43 -63
q63 -97 63 -168q0 -56 -40.5 -121.5t-96.5 -102.5q-67 -47 -121.5 -66.5t-115.5 -19.5q-68 0 -109 24t-41 60q0 56 53 136h23q88 -119 176 -119q52 0 86.5 38t34.5 97q3 36 -18.5 82t-53 92t-33.5 49q-53 77 -76.5 133t-23.5 119q0 108 66 188t221 166q94 53 140 106t46 124
q0 77 -55.5 125.5t-151.5 48.5q-171 0 -270 -131.5t-149 -419.5q-62 -351 -144 -754q-34 -170 -64.5 -276.5t-80.5 -198.5q-59 -112 -146.5 -174.5t-199.5 -62.5q-152 0 -152 75z" />
    <glyph glyph-name="agrave" unicode="&#xe0;" horiz-adv-x="1077" 
d="M-23 119q0 166 95 354q95 191 239 320t287 129q95 0 156 -80h6l47 112l8 7q28 4 70 4q15 0 35 -4q-43 -158 -199 -705q-27 -88 -27 -117q0 -22 17 -22q25 0 83.5 51.5t112.5 120.5l13 -4q-8 -62 -39 -144q-68 -75 -140 -121.5t-123 -46.5q-37 0 -58 19.5t-21 54.5
q0 63 120 414h-18q-127 -201 -276 -344q-147 -144 -250 -144q-57 0 -97.5 42.5t-40.5 103.5zM600 528q62 103 90 189q-18 52 -61.5 85.5t-96.5 33.5q-74 0 -163 -105q-85 -101 -150 -256q-60 -146 -69 -282q-1 -53 9.5 -74t35.5 -21q44 0 167 122t238 308zM688 1061
l-369 393v23q91 4 228 -13l198 -354v-12q-6 -11 -22.5 -22t-34.5 -15z" />
    <glyph glyph-name="aacute" unicode="&#xe1;" horiz-adv-x="1077" 
d="M-23 119q0 166 95 354q95 191 239 320t287 129q95 0 156 -80h6l47 112l8 7q28 4 70 4q15 0 35 -4q-43 -158 -199 -705q-27 -88 -27 -117q0 -22 17 -22q25 0 83.5 51.5t112.5 120.5l13 -4q-8 -62 -39 -144q-68 -75 -140 -121.5t-123 -46.5q-37 0 -58 19.5t-21 54.5
q0 63 120 414h-18q-127 -201 -276 -344q-147 -144 -250 -144q-57 0 -97.5 42.5t-40.5 103.5zM600 528q62 103 90 189q-18 52 -61.5 85.5t-96.5 33.5q-74 0 -163 -105q-85 -101 -150 -256q-60 -146 -69 -282q-1 -53 9.5 -74t35.5 -21q44 0 167 122t238 308zM573 1098v12
l261 354q99 12 229 9v-23l-432 -391q-18 4 -35 16t-23 23z" />
    <glyph glyph-name="acircumflex" unicode="&#xe2;" horiz-adv-x="1077" 
d="M-23 119q0 166 95 354q95 191 239 320t287 129q95 0 156 -80h6l47 112l8 7q28 4 70 4q15 0 35 -4q-43 -158 -199 -705q-27 -88 -27 -117q0 -22 17 -22q25 0 83.5 51.5t112.5 120.5l13 -4q-8 -62 -39 -144q-68 -75 -140 -121.5t-123 -46.5q-37 0 -58 19.5t-21 54.5
q0 63 120 414h-18q-127 -201 -276 -344q-147 -144 -250 -144q-57 0 -97.5 42.5t-40.5 103.5zM600 528q62 103 90 189q-18 52 -61.5 85.5t-96.5 33.5q-74 0 -163 -105q-85 -101 -150 -256q-60 -146 -69 -282q-1 -53 9.5 -74t35.5 -21q44 0 167 122t238 308zM414 1110l-2 12
l290 344h109l12 -10l117 -354q-25 -29 -72 -29l-10 6l-117 226h-20l-252 -238q-17 1 -32 13.5t-23 29.5z" />
    <glyph glyph-name="atilde" unicode="&#xe3;" horiz-adv-x="1077" 
d="M-23 119q0 166 95 354q95 191 239 320t287 129q95 0 156 -80h6l47 112l8 7q28 4 70 4q15 0 35 -4q-43 -158 -199 -705q-27 -88 -27 -117q0 -22 17 -22q25 0 83.5 51.5t112.5 120.5l13 -4q-8 -62 -39 -144q-68 -75 -140 -121.5t-123 -46.5q-37 0 -58 19.5t-21 54.5
q0 63 120 414h-18q-127 -201 -276 -344q-147 -144 -250 -144q-57 0 -97.5 42.5t-40.5 103.5zM600 528q62 103 90 189q-18 52 -61.5 85.5t-96.5 33.5q-74 0 -163 -105q-85 -101 -150 -256q-60 -146 -69 -282q-1 -53 9.5 -74t35.5 -21q44 0 167 122t238 308zM362 1174
q131 165 240 165q55 0 150 -36q84 -35 129 -35q58 0 137 110l8 2q29 -40 37 -59q-56 -88 -109.5 -136t-97.5 -48q-56 0 -156 41q-91 34 -135 34q-67 0 -151 -90l-8 -2q-20 17 -44 54z" />
    <glyph glyph-name="adieresis" unicode="&#xe4;" horiz-adv-x="1077" 
d="M-23 119q0 166 95 354q95 191 239 320t287 129q95 0 156 -80h6l47 112l8 7q28 4 70 4q15 0 35 -4q-43 -158 -199 -705q-27 -88 -27 -117q0 -22 17 -22q25 0 83.5 51.5t112.5 120.5l13 -4q-8 -62 -39 -144q-68 -75 -140 -121.5t-123 -46.5q-37 0 -58 19.5t-21 54.5
q0 63 120 414h-18q-127 -201 -276 -344q-147 -144 -250 -144q-57 0 -97.5 42.5t-40.5 103.5zM600 528q62 103 90 189q-18 52 -61.5 85.5t-96.5 33.5q-74 0 -163 -105q-85 -101 -150 -256q-60 -146 -69 -282q-1 -53 9.5 -74t35.5 -21q44 0 167 122t238 308zM418 1253
q0 53 35.5 88t87.5 35q37 0 63.5 -26.5t26.5 -61.5q0 -56 -33.5 -92.5t-87.5 -36.5q-40 0 -66 27.5t-26 66.5zM762 1253q0 54 35.5 88.5t89.5 34.5q36 0 62 -26t26 -62q0 -56 -33.5 -92.5t-87.5 -36.5q-38 0 -65 28.5t-27 65.5z" />
    <glyph glyph-name="aring" unicode="&#xe5;" horiz-adv-x="1077" 
d="M-23 119q0 166 95 354q95 191 239 320t287 129q95 0 156 -80h6l47 112l8 7q28 4 70 4q15 0 35 -4q-43 -158 -199 -705q-27 -88 -27 -117q0 -22 17 -22q25 0 83.5 51.5t112.5 120.5l13 -4q-8 -62 -39 -144q-68 -75 -140 -121.5t-123 -46.5q-37 0 -58 19.5t-21 54.5
q0 63 120 414h-18q-127 -201 -276 -344q-147 -144 -250 -144q-57 0 -97.5 42.5t-40.5 103.5zM600 528q62 103 90 189q-18 52 -61.5 85.5t-96.5 33.5q-74 0 -163 -105q-85 -101 -150 -256q-60 -146 -69 -282q-1 -53 9.5 -74t35.5 -21q44 0 167 122t238 308zM496 1221
q0 94 73 161q74 68 183 68q84 0 133 -43t49 -113q0 -97 -74 -168q-69 -69 -172 -69q-91 0 -141.5 44t-50.5 120zM823 1284q0 42 -23 66t-61 24q-56 0 -95.5 -42.5t-39.5 -98.5q0 -47 24.5 -72.5t69.5 -25.5q55 0 90 42.5t35 106.5z" />
    <glyph glyph-name="ae" unicode="&#xe6;" horiz-adv-x="1355" 
d="M-23 119q0 166 95 354q96 194 237 320q144 129 287 129q139 0 244 -91q144 105 276 105q77 0 123.5 -39.5t46.5 -101.5q0 -134 -162 -228q-157 -90 -401 -155q-14 -55 -14 -131q0 -98 31 -148.5t89 -50.5q141 0 289 180l12 -4q-11 -63 -34 -123q-62 -72 -148.5 -117
t-171.5 -45q-123 0 -182 70t-59 219q0 29 14 100h-10q-254 -389 -424 -389q-57 0 -97.5 43t-40.5 103zM1124 805q0 59 -51 59q-84 0 -184.5 -113.5t-149.5 -269.5q385 135 385 324zM530 471l185 270q-72 97 -176 97q-86 0 -177 -113q-91 -117 -151 -270q-61 -155 -61 -273
q0 -46 10.5 -65t34.5 -19q73 0 335 373z" />
    <glyph glyph-name="ccedilla" unicode="&#xe7;" horiz-adv-x="792" 
d="M-12 246q0 147 75 307q75 161 205 272q126 111 271 111q92 0 140 -35t48 -96q0 -42 -31.5 -82t-87.5 -66l-16 2q-9 205 -103 205q-51 4 -110.5 -51t-107.5 -139.5t-79.5 -193t-29.5 -204.5q0 -99 30.5 -145.5t98.5 -46.5q51 0 124.5 48.5t145.5 129.5l12 -4
q-6 -60 -32 -121q-157 -164 -330 -164q-104 0 -163.5 70.5t-59.5 202.5zM-23 -508q-13 48 -16 92l10 8q54 -39 93 -56t81 -17q52 0 80.5 24t28.5 64q0 50 -36.5 88t-115.5 74l-4 14l166 258l8 4l56 -27l-105 -161q70 -34 113 -89t43 -120q0 -87 -67 -146t-169 -59
q-90 0 -166 49z" />
    <glyph glyph-name="egrave" unicode="&#xe8;" horiz-adv-x="808" 
d="M-12 262q0 163 88 318q88 156 225 256q135 100 264 100q79 0 126.5 -39.5t47.5 -101.5q0 -135 -164 -230q-165 -95 -399 -153q-14 -55 -14 -131q0 -199 125 -199q134 0 284 180l13 -4q-10 -58 -35 -123q-59 -70 -145.5 -116t-170.5 -46q-125 0 -185 70t-60 219zM578 805
q0 59 -52 59q-86 0 -187 -114.5t-146 -268.5q385 137 385 324zM588 1061l-369 393v23q90 4 227 -13l199 -354v-12q-6 -11 -22.5 -22t-34.5 -15z" />
    <glyph glyph-name="eacute" unicode="&#xe9;" horiz-adv-x="808" 
d="M-12 262q0 163 88 318q88 156 225 256q135 100 264 100q79 0 126.5 -39.5t47.5 -101.5q0 -135 -164 -230q-165 -95 -399 -153q-14 -55 -14 -131q0 -199 125 -199q134 0 284 180l13 -4q-10 -58 -35 -123q-59 -70 -145.5 -116t-170.5 -46q-125 0 -185 70t-60 219zM578 805
q0 59 -52 59q-86 0 -187 -114.5t-146 -268.5q385 137 385 324zM473 1098v12l260 354q99 12 230 9v-23l-433 -391q-40 10 -57 39z" />
    <glyph glyph-name="ecircumflex" unicode="&#xea;" horiz-adv-x="808" 
d="M-12 262q0 163 88 318q88 156 225 256q135 100 264 100q79 0 126.5 -39.5t47.5 -101.5q0 -135 -164 -230q-165 -95 -399 -153q-14 -55 -14 -131q0 -199 125 -199q134 0 284 180l13 -4q-10 -58 -35 -123q-59 -70 -145.5 -116t-170.5 -46q-125 0 -185 70t-60 219zM578 805
q0 59 -52 59q-86 0 -187 -114.5t-146 -268.5q385 137 385 324zM313 1110l-2 12l291 344h109l12 -10l117 -354q-25 -29 -72 -29l-10 6l-117 226h-20l-252 -238q-17 1 -32.5 13.5t-23.5 29.5z" />
    <glyph glyph-name="edieresis" unicode="&#xeb;" horiz-adv-x="808" 
d="M-12 262q0 163 88 318q88 156 225 256q135 100 264 100q79 0 126.5 -39.5t47.5 -101.5q0 -135 -164 -230q-165 -95 -399 -153q-14 -55 -14 -131q0 -199 125 -199q134 0 284 180l13 -4q-10 -58 -35 -123q-59 -70 -145.5 -116t-170.5 -46q-125 0 -185 70t-60 219zM578 805
q0 59 -52 59q-86 0 -187 -114.5t-146 -268.5q385 137 385 324zM317 1253q0 53 35.5 88t87.5 35q37 0 63.5 -26.5t26.5 -61.5q0 -56 -33.5 -92.5t-86.5 -36.5q-40 0 -66.5 27.5t-26.5 66.5zM662 1253q0 54 35 88.5t89 34.5q36 0 62 -26t26 -62q0 -56 -33.5 -92.5t-86.5 -36.5
q-38 0 -65 28.5t-27 65.5z" />
    <glyph glyph-name="igrave" unicode="&#xec;" horiz-adv-x="618" 
d="M45 45q0 29 14 78l21 70l127 425q10 41 20 66q25 92 25 94q0 15 -12 15q-26 0 -86 -44t-123 -114q-9 35 -6 82l4 14q86 95 172.5 150t154.5 55q35 0 55.5 -20.5t20.5 -51.5q0 -47 -45 -186l-145 -471q-21 -61 -21 -76q0 -10 3 -13t14 -3q26 0 89 50t128 126l12 -4
q-11 -64 -31 -121q-74 -87 -155 -140t-146 -53q-38 0 -64 20.5t-26 51.5zM403 1061l-368 393v23q90 4 227 -13l199 -354v-12q-6 -11 -23 -22t-35 -15z" />
    <glyph glyph-name="iacute" unicode="&#xed;" horiz-adv-x="618" 
d="M45 45q0 29 14 78l21 70l127 425q10 41 20 66q25 92 25 94q0 15 -12 15q-26 0 -86 -44t-123 -114q-9 35 -6 82l4 14q86 95 172.5 150t154.5 55q35 0 55.5 -20.5t20.5 -51.5q0 -47 -45 -186l-145 -471q-21 -61 -21 -76q0 -10 3 -13t14 -3q26 0 89 50t128 126l12 -4
q-11 -64 -31 -121q-74 -87 -155 -140t-146 -53q-38 0 -64 20.5t-26 51.5zM289 1098v12l260 354q99 12 229 9v-23l-432 -391q-40 10 -57 39z" />
    <glyph glyph-name="icircumflex" unicode="&#xee;" horiz-adv-x="618" 
d="M45 45q0 29 14 78l21 70l127 425q10 41 20 66q25 92 25 94q0 15 -12 15q-26 0 -86 -44t-123 -114q-9 35 -6 82l4 14q86 95 172.5 150t154.5 55q35 0 55.5 -20.5t20.5 -51.5q0 -47 -45 -186l-145 -471q-21 -61 -21 -76q0 -10 3 -13t14 -3q26 0 89 50t128 126l12 -4
q-11 -64 -31 -121q-74 -87 -155 -140t-146 -53q-38 0 -64 20.5t-26 51.5zM129 1110l-2 12l291 344h108l13 -10l116 -354q-25 -29 -71 -29l-11 6l-116 226h-21l-252 -238q-17 1 -32 13.5t-23 29.5z" />
    <glyph glyph-name="idieresis" unicode="&#xef;" horiz-adv-x="618" 
d="M45 45q0 29 14 78l21 70l127 425q10 41 20 66q25 92 25 94q0 15 -12 15q-26 0 -86 -44t-123 -114q-9 35 -6 82l4 14q86 95 172.5 150t154.5 55q35 0 55.5 -20.5t20.5 -51.5q0 -47 -45 -186l-145 -471q-21 -61 -21 -76q0 -10 3 -13t14 -3q26 0 89 50t128 126l12 -4
q-11 -64 -31 -121q-74 -87 -155 -140t-146 -53q-38 0 -64 20.5t-26 51.5zM133 1253q0 53 35.5 88t87.5 35q37 0 63.5 -26.5t26.5 -61.5q0 -56 -33.5 -92.5t-87.5 -36.5q-40 0 -66 27.5t-26 66.5zM477 1253q0 54 35.5 88.5t89.5 34.5q36 0 62 -26t26 -62q0 -56 -33.5 -92.5
t-87.5 -36.5q-38 0 -65 28.5t-27 65.5z" />
    <glyph glyph-name="eth" unicode="&#xf0;" horiz-adv-x="931" 
d="M-8 256q0 127 55 268q69 171 209 293q137 119 283 119q64 0 104 -37h6q-3 164 -100 309l-289 -159q-29 44 -37 67l4 12l273 150q-103 121 -234 164v12q19 38 53 51q162 -64 275 -174l256 142q30 -30 33 -70v-10l-230 -127q156 -200 156 -484q0 -151 -50.5 -300
t-129.5 -259q-87 -118 -189 -184t-198 -66q-118 0 -184 72t-66 211zM489 274q59 97 107 244q47 143 47 277q-5 23 -27 38t-53 15q-90 0 -192 -105q-99 -99 -168 -272q-64 -158 -64 -272q0 -144 105 -144q51 0 118.5 59.5t126.5 159.5z" />
    <glyph glyph-name="ntilde" unicode="&#xf1;" horiz-adv-x="1124" 
d="M547 49q0 32 47 178l121 367q53 157 53 197q0 45 -35 45q-48 5 -143 -100.5t-197.5 -270t-177.5 -330.5q-32 -71 -57 -143l-15 -8q-6 -2 -28 -2q-58 0 -80 36l139 496l25 90q45 151 45 172q0 23 -15 23q-33 0 -99 -52t-120 -126q-10 47 -8 86l4 14q69 96 158 155.5
t164 59.5q35 0 55 -15.5t20 -41.5q0 -52 -32 -148l-97 -303h15q149 268 270 389q119 119 244 119t125 -125q0 -61 -54 -229l-126 -377q-19 -62 -19 -74q0 -16 16 -16q27 0 89 50.5t133 133.5l12 -4q-11 -64 -31 -121q-72 -88 -157 -144.5t-156 -56.5q-41 0 -64.5 22
t-23.5 54zM369 1174q131 165 239 165q55 0 150 -36q84 -35 129 -35q58 0 137 110l8 2q29 -40 37 -59q-56 -88 -109.5 -136t-97.5 -48q-55 0 -155 41q-91 34 -136 34q-67 0 -151 -90l-8 -2q-18 15 -43 54z" />
    <glyph glyph-name="ograve" unicode="&#xf2;" horiz-adv-x="929" 
d="M-16 279q0 154 77 321q68 146 191 240q125 96 266 96q127 0 200 -77.5t73 -211.5q0 -139 -58 -285q-59 -145 -160 -249q-60 -63 -142 -101.5t-157 -38.5q-142 0 -216 79.5t-74 226.5zM492 219q57 93 91.5 214t34.5 241q0 96 -28 139t-86 43q-77 0 -153 -79.5t-128 -209.5
q-65 -163 -65 -309q0 -106 29 -155.5t94 -49.5q108 0 211 166zM594 1061l-369 393v23q91 4 228 -13l198 -354v-12q-6 -11 -22.5 -22t-34.5 -15z" />
    <glyph glyph-name="oacute" unicode="&#xf3;" horiz-adv-x="929" 
d="M-16 279q0 154 77 321q68 146 191 240q125 96 266 96q127 0 200 -77.5t73 -211.5q0 -139 -58 -285q-59 -145 -160 -249q-60 -63 -142 -101.5t-157 -38.5q-142 0 -216 79.5t-74 226.5zM492 219q57 93 91.5 214t34.5 241q0 96 -28 139t-86 43q-77 0 -153 -79.5t-128 -209.5
q-65 -163 -65 -309q0 -106 29 -155.5t94 -49.5q108 0 211 166zM479 1098v12l260 354q99 12 230 9v-23l-432 -391q-18 4 -35 16t-23 23z" />
    <glyph glyph-name="ocircumflex" unicode="&#xf4;" horiz-adv-x="929" 
d="M-16 279q0 154 77 321q68 146 191 240q125 96 266 96q127 0 200 -77.5t73 -211.5q0 -139 -58 -285q-59 -145 -160 -249q-60 -63 -142 -101.5t-157 -38.5q-142 0 -216 79.5t-74 226.5zM492 219q57 93 91.5 214t34.5 241q0 96 -28 139t-86 43q-77 0 -153 -79.5t-128 -209.5
q-65 -163 -65 -309q0 -106 29 -155.5t94 -49.5q108 0 211 166zM319 1110l-2 12l291 344h109l12 -10l117 -354q-25 -29 -72 -29l-10 6l-117 226h-20l-252 -238q-17 1 -32.5 13.5t-23.5 29.5z" />
    <glyph glyph-name="otilde" unicode="&#xf5;" horiz-adv-x="929" 
d="M-16 279q0 154 77 321q68 146 191 240q125 96 266 96q127 0 200 -77.5t73 -211.5q0 -139 -58 -285q-59 -145 -160 -249q-60 -63 -142 -101.5t-157 -38.5q-142 0 -216 79.5t-74 226.5zM492 219q57 93 91.5 214t34.5 241q0 96 -28 139t-86 43q-77 0 -153 -79.5t-128 -209.5
q-65 -163 -65 -309q0 -106 29 -155.5t94 -49.5q108 0 211 166zM268 1174q131 165 240 165q54 0 149 -36q84 -35 129 -35q59 0 138 110l8 2q29 -40 37 -59q-56 -88 -109.5 -136t-97.5 -48q-56 0 -156 41q-91 34 -135 34q-68 0 -152 -90l-8 -2q-18 15 -43 54z" />
    <glyph glyph-name="odieresis" unicode="&#xf6;" horiz-adv-x="929" 
d="M-16 279q0 154 77 321q68 146 191 240q125 96 266 96q127 0 200 -77.5t73 -211.5q0 -139 -58 -285q-59 -145 -160 -249q-60 -63 -142 -101.5t-157 -38.5q-142 0 -216 79.5t-74 226.5zM492 219q57 93 91.5 214t34.5 241q0 96 -28 139t-86 43q-77 0 -153 -79.5t-128 -209.5
q-65 -163 -65 -309q0 -106 29 -155.5t94 -49.5q108 0 211 166zM324 1253q0 53 35 88t87 35q37 0 64 -26.5t27 -61.5q0 -56 -33.5 -92.5t-87.5 -36.5q-40 0 -66 27.5t-26 66.5zM668 1253q0 54 35.5 88.5t89.5 34.5q36 0 62 -26t26 -62q0 -56 -33.5 -92.5t-87.5 -36.5
q-38 0 -65 28.5t-27 65.5z" />
    <glyph glyph-name="divide" unicode="&#xf7;" horiz-adv-x="1146" 
d="M453 760q0 44 29.5 74t72.5 30t71.5 -30t28.5 -74q0 -43 -29 -73t-71 -30q-43 0 -72.5 30t-29.5 73zM180 467l10 6h758q0 -61 -12 -108l-10 -7h-758q0 60 12 109zM453 70q0 44 29.5 74t72.5 30t71.5 -30t28.5 -74q0 -43 -29 -73t-71 -30q-43 0 -72.5 30t-29.5 73z" />
    <glyph glyph-name="oslash" unicode="&#xf8;" horiz-adv-x="929" 
d="M-100 -31l2 13l116 127q-34 72 -34 170q0 154 77 321q68 146 191 240q125 96 266 96q117 0 195 -72q9 13 59 70l55 61q25 -14 47 -45l-4 -12l-118 -129q39 -65 39 -162q0 -139 -58 -285q-59 -145 -160 -249q-60 -63 -142 -101.5t-157 -38.5q-140 0 -217 80l-55 -65
l-57 -62q-29 20 -45 43zM311 432l301 332q-15 92 -108 92q-77 0 -153 -79.5t-128 -209.5q-69 -168 -69 -309v-22q59 86 157 196zM492 219q59 96 95 219.5t36 247.5q-6 -7 -26 -33t-50 -64t-55 -69l-328 -364q24 -103 117 -103q108 0 211 166z" />
    <glyph glyph-name="ugrave" unicode="&#xf9;" horiz-adv-x="1126" 
d="M59 96q0 62 60 248l104 313l21 62q14 43 14 59q0 17 -16 17q-27 0 -87.5 -46.5t-131.5 -125.5q-10 40 -7 82l4 14q75 94 173.5 155.5t173.5 61.5q35 0 55 -18t20 -50q0 -47 -47 -178l-18 -57l-101 -307q-53 -161 -53 -201q0 -35 29 -35q28 -2 83.5 45.5t120 127
t136 194.5t125.5 235q47 99 100 234l17 10q6 2 40 2q42 0 82 -12q-146 -501 -202 -731q-2 -14 -5 -28.5t-4.5 -21.5t-1.5 -10q0 -20 17 -20q55 0 205 184l14 -4q-9 -73 -31 -129q-74 -88 -150 -140.5t-136 -52.5q-36 0 -57 22t-21 60q0 41 26 123l92 283h-16
q-131 -231 -267.5 -359.5t-236.5 -128.5q-52 0 -87.5 34.5t-35.5 88.5zM666 1061l-369 393v23q90 4 227 -13l199 -354v-12q-6 -11 -22.5 -22t-34.5 -15z" />
    <glyph glyph-name="uacute" unicode="&#xfa;" horiz-adv-x="1126" 
d="M59 96q0 62 60 248l104 313l21 62q14 43 14 59q0 17 -16 17q-27 0 -87.5 -46.5t-131.5 -125.5q-10 40 -7 82l4 14q75 94 173.5 155.5t173.5 61.5q35 0 55 -18t20 -50q0 -47 -47 -178l-18 -57l-101 -307q-53 -161 -53 -201q0 -35 29 -35q28 -2 83.5 45.5t120 127
t136 194.5t125.5 235q47 99 100 234l17 10q6 2 40 2q42 0 82 -12q-146 -501 -202 -731q-2 -14 -5 -28.5t-4.5 -21.5t-1.5 -10q0 -20 17 -20q55 0 205 184l14 -4q-9 -73 -31 -129q-74 -88 -150 -140.5t-136 -52.5q-36 0 -57 22t-21 60q0 41 26 123l92 283h-16
q-131 -231 -267.5 -359.5t-236.5 -128.5q-52 0 -87.5 34.5t-35.5 88.5zM551 1098v12l260 354q99 12 229 9v-23l-432 -391q-40 10 -57 39z" />
    <glyph glyph-name="ucircumflex" unicode="&#xfb;" horiz-adv-x="1126" 
d="M59 96q0 62 60 248l104 313l21 62q14 43 14 59q0 17 -16 17q-27 0 -87.5 -46.5t-131.5 -125.5q-10 40 -7 82l4 14q75 94 173.5 155.5t173.5 61.5q35 0 55 -18t20 -50q0 -47 -47 -178l-18 -57l-101 -307q-53 -161 -53 -201q0 -35 29 -35q28 -2 83.5 45.5t120 127
t136 194.5t125.5 235q47 99 100 234l17 10q6 2 40 2q42 0 82 -12q-146 -501 -202 -731q-2 -14 -5 -28.5t-4.5 -21.5t-1.5 -10q0 -20 17 -20q55 0 205 184l14 -4q-9 -73 -31 -129q-74 -88 -150 -140.5t-136 -52.5q-36 0 -57 22t-21 60q0 41 26 123l92 283h-16
q-131 -231 -267.5 -359.5t-236.5 -128.5q-52 0 -87.5 34.5t-35.5 88.5zM391 1110l-2 12l291 344h108l13 -10l117 -354q-25 -29 -72 -29l-10 6l-117 226h-21l-252 -238q-17 1 -32 13.5t-23 29.5z" />
    <glyph glyph-name="udieresis" unicode="&#xfc;" horiz-adv-x="1126" 
d="M59 96q0 62 60 248l104 313l21 62q14 43 14 59q0 17 -16 17q-27 0 -87.5 -46.5t-131.5 -125.5q-10 40 -7 82l4 14q75 94 173.5 155.5t173.5 61.5q35 0 55 -18t20 -50q0 -47 -47 -178l-18 -57l-101 -307q-53 -161 -53 -201q0 -35 29 -35q28 -2 83.5 45.5t120 127
t136 194.5t125.5 235q47 99 100 234l17 10q6 2 40 2q42 0 82 -12q-146 -501 -202 -731q-2 -14 -5 -28.5t-4.5 -21.5t-1.5 -10q0 -20 17 -20q55 0 205 184l14 -4q-9 -73 -31 -129q-74 -88 -150 -140.5t-136 -52.5q-36 0 -57 22t-21 60q0 41 26 123l92 283h-16
q-131 -231 -267.5 -359.5t-236.5 -128.5q-52 0 -87.5 34.5t-35.5 88.5zM395 1253q0 53 35.5 88t87.5 35q37 0 63.5 -26.5t26.5 -61.5q0 -56 -33.5 -92.5t-87.5 -36.5q-40 0 -66 27.5t-26 66.5zM739 1253q0 54 35.5 88.5t89.5 34.5q36 0 62 -26t26 -62q0 -56 -33.5 -92.5
t-87.5 -36.5q-38 0 -65 28.5t-27 65.5z" />
    <glyph glyph-name="yacute" unicode="&#xfd;" horiz-adv-x="915" 
d="M-287 -516v22q147 41 275 126t225 194q44 54 59 76q-3 155 -18 370q-12 167 -39 381q-11 83 -23 115.5t-36 32.5q-26 0 -59 -48t-83 -157q-29 41 -32 78v14q49 115 114.5 181.5t128.5 66.5q62 0 88.5 -47t40.5 -172q38 -310 47 -629h11q116 183 175.5 346.5t59.5 329.5
q0 92 -18 160l16 10q87 -11 124.5 -41.5t37.5 -93.5q0 -45 -20.5 -123t-64 -189.5t-128.5 -261t-197 -301.5q-170 -233 -336 -383q-74 -68 -116 -90t-88 -22q-70 0 -144 55zM416 1098v12l260 354q99 12 229 9v-23l-432 -391q-40 10 -57 39z" />
    <glyph glyph-name="thorn" unicode="&#xfe;" horiz-adv-x="1040" 
d="M-309 -494l10 7q60 6 149 24q22 7 33 16.5t17 32.5l75 332l138 612q92 366 147 594l25 101q24 102 24 127q0 19 -24 22q-77 12 -111 15q8 36 21 59l6 6q184 28 276 41l31 -18l-115 -467q-63 -248 -176 -555h14q103 241 227 361t255 120q80 0 134 -58t54 -155
q0 -152 -80 -332q-77 -176 -213 -297t-295 -121q-77 0 -161 37l-64 -307l-10 -47q-15 -68 -15 -86q0 -30 37 -33q70 -4 189 -4q-5 -34 -31 -78l-10 -6q-178 2 -574 -14q0 29 17 71zM727 735q0 53 -18.5 81t-51.5 28q-35 2 -95.5 -47.5t-126.5 -131.5t-131.5 -204.5
t-104.5 -251.5q-24 -87 -25 -94q23 -26 68.5 -46t83.5 -20q88 -6 184.5 105.5t158 275.5t58.5 305z" />
    <glyph glyph-name="ydieresis" unicode="&#xff;" horiz-adv-x="915" 
d="M-287 -516v22q147 41 275 126t225 194q44 54 59 76q-3 155 -18 370q-12 167 -39 381q-11 83 -23 115.5t-36 32.5q-26 0 -59 -48t-83 -157q-29 41 -32 78v14q49 115 114.5 181.5t128.5 66.5q62 0 88.5 -47t40.5 -172q38 -310 47 -629h11q116 183 175.5 346.5t59.5 329.5
q0 92 -18 160l16 10q87 -11 124.5 -41.5t37.5 -93.5q0 -45 -20.5 -123t-64 -189.5t-128.5 -261t-197 -301.5q-170 -233 -336 -383q-74 -68 -116 -90t-88 -22q-70 0 -144 55zM260 1253q0 53 35.5 88t87.5 35q37 0 63.5 -26.5t26.5 -61.5q0 -56 -33.5 -92.5t-87.5 -36.5
q-40 0 -66 27.5t-26 66.5zM604 1253q0 54 35.5 88.5t89.5 34.5q36 0 62 -26t26 -62q0 -56 -33.5 -92.5t-87.5 -36.5q-38 0 -65 28.5t-27 65.5z" />
    <glyph glyph-name="Amacron" unicode="&#x100;" horiz-adv-x="1476" 
d="M-70 63l7 7l83 22q49 12 79.5 33.5t54.5 62.5q390 696 495 877q47 81 74 123q84 136 119 205l14 8q70 16 168 22l25 -247l106 -1024q1 -28 13 -41.5t36 -18.5q57 -15 109 -22q-3 -42 -17 -74l-10 -6l-43 2q-104 8 -199 8q-75 0 -235 -10q0 41 14 73l8 5l109 24
q43 12 43 49q0 61 -35 379q-75 -10 -162 -10h-321l-160 -301q-26 -48 -26 -70q0 -26 30 -35q69 -23 127 -36q-3 -44 -18 -68l-15 -8q-164 8 -253 8q-81 0 -234 -10q0 45 14 73zM664 614h274l-39 381q-9 78 -20 215h-19l-125 -211q-99 -170 -217 -393q52 8 146 8zM729 1696
l10 6h525q-3 -50 -23 -105l-10 -6h-526q6 61 24 105z" />
    <glyph glyph-name="amacron" unicode="&#x101;" horiz-adv-x="1077" 
d="M-23 119q0 166 95 354q95 191 239 320t287 129q95 0 156 -80h6l47 112l8 7q28 4 70 4q15 0 35 -4q-43 -158 -199 -705q-27 -88 -27 -117q0 -22 17 -22q25 0 83.5 51.5t112.5 120.5l13 -4q-8 -62 -39 -144q-68 -75 -140 -121.5t-123 -46.5q-37 0 -58 19.5t-21 54.5
q0 63 120 414h-18q-127 -201 -276 -344q-147 -144 -250 -144q-57 0 -97.5 42.5t-40.5 103.5zM600 528q62 103 90 189q-18 52 -61.5 85.5t-96.5 33.5q-74 0 -163 -105q-85 -101 -150 -256q-60 -146 -69 -282q-1 -53 9.5 -74t35.5 -21q44 0 167 122t238 308zM457 1276l10 6
h524q-3 -57 -22 -104l-13 -7h-528q16 73 29 105z" />
    <glyph glyph-name="Abreve" unicode="&#x102;" horiz-adv-x="1476" 
d="M-70 63l7 7l83 22q49 12 79.5 33.5t54.5 62.5q390 696 495 877q47 81 74 123q84 136 119 205l14 8q70 16 168 22l25 -247l106 -1024q1 -28 13 -41.5t36 -18.5q57 -15 109 -22q-3 -42 -17 -74l-10 -6l-43 2q-104 8 -199 8q-75 0 -235 -10q0 41 14 73l8 5l109 24
q43 12 43 49q0 61 -35 379q-75 -10 -162 -10h-321l-160 -301q-26 -48 -26 -70q0 -26 30 -35q69 -23 127 -36q-3 -44 -18 -68l-15 -8q-164 8 -253 8q-81 0 -234 -10q0 45 14 73zM664 614h274l-39 381q-9 78 -20 215h-19l-125 -211q-99 -170 -217 -393q52 8 146 8zM711 1798
l4 10q22 22 63 33q31 -83 86.5 -129.5t126.5 -46.5q146 0 269 176l10 6q30 -30 41 -71q-57 -105 -145.5 -171.5t-188.5 -66.5q-102 0 -172 70t-94 190z" />
    <glyph glyph-name="abreve" unicode="&#x103;" horiz-adv-x="1077" 
d="M-23 119q0 166 95 354q95 191 239 320t287 129q95 0 156 -80h6l47 112l8 7q28 4 70 4q15 0 35 -4q-43 -158 -199 -705q-27 -88 -27 -117q0 -22 17 -22q25 0 83.5 51.5t112.5 120.5l13 -4q-8 -62 -39 -144q-68 -75 -140 -121.5t-123 -46.5q-37 0 -58 19.5t-21 54.5
q0 63 120 414h-18q-127 -201 -276 -344q-147 -144 -250 -144q-57 0 -97.5 42.5t-40.5 103.5zM600 528q62 103 90 189q-18 52 -61.5 85.5t-96.5 33.5q-74 0 -163 -105q-85 -101 -150 -256q-60 -146 -69 -282q-1 -53 9.5 -74t35.5 -21q44 0 167 122t238 308zM420 1370l4 10
q25 25 57 33q19 -89 72 -146t123 -57q78 0 157.5 57t129.5 146l10 6q19 -22 35 -71q-46 -107 -144 -183q-95 -71 -198 -71q-101 0 -164.5 73t-81.5 203z" />
    <glyph glyph-name="Aogonek" unicode="&#x104;" horiz-adv-x="1476" 
d="M-70 63l7 7l81 22q93 22 136 96q252 454 495 877q47 81 74 123q84 136 119 205l14 8q70 16 168 22l6 -65q5 -49 10 -96t7 -65.5t2 -20.5q71 -666 106 -1024q1 -28 13 -41.5t36 -18.5q57 -15 109 -22q-3 -42 -17 -74l-10 -6q-147 10 -190 10q-141 0 -238.5 -101
t-97.5 -225q0 -53 22.5 -81.5t61.5 -28.5q60 0 139 55l12 -2q0 -43 -10 -76q-101 -82 -207 -82q-86 0 -134 48.5t-48 134.5q0 110 96 226.5t260 203.5q31 17 31 67q0 63 -35 381q-75 -10 -162 -10h-321l-160 -301q-26 -48 -26 -70q0 -26 30 -35q69 -23 127 -36
q-3 -44 -18 -68l-15 -8q-164 8 -253 8q-81 0 -234 -10q0 45 14 73zM664 614h274l-39 381q-9 78 -20 215h-19l-125 -211q-99 -170 -217 -393q52 8 146 8z" />
    <glyph glyph-name="aogonek" unicode="&#x105;" horiz-adv-x="1077" 
d="M367 -395q0 76 61 155q60 78 225 217v7q-26 -11 -49 -11q-30 0 -52 19.5t-22 50.5q0 40 27 126t100 292h-16q-128 -201 -279 -346q-148 -142 -247 -142q-57 0 -97.5 42.5t-40.5 103.5q0 166 95 354q95 191 239 320t287 129q95 0 156 -80h6l47 112l8 7q28 4 70 4
q15 0 35 -4q-81 -297 -199 -705q-27 -92 -27 -117q0 -22 17 -22q25 0 83.5 51.5t112.5 120.5l13 -4q-8 -62 -39 -144l-43 -45q-169 -179 -236 -268q-72 -97 -72 -176q0 -39 23 -63.5t61 -24.5q62 0 140 55l12 -2q0 -43 -10 -76q-42 -36 -101.5 -59t-115.5 -23
q-76 0 -124 42.5t-48 103.5zM600 528q62 103 90 189q-18 52 -61.5 85.5t-96.5 33.5q-74 0 -163 -105q-85 -101 -150 -256q-60 -146 -69 -282q-1 -53 9.5 -74t35.5 -21q44 0 167 122t238 308z" />
    <glyph glyph-name="Cacute" unicode="&#x106;" horiz-adv-x="1417" 
d="M104 573q-2 183 63.5 341.5t180 268t273.5 171t340 59.5q89 0 239 -27q115 -16 141 -16q42 0 52 2l12 -14q-25 -192 -66 -373l-8 -12q-30 -15 -88 -12q4 118 4 155q0 105 -68 155t-221 50q-134 2 -258 -54t-215.5 -153.5t-145 -237t-50.5 -294.5q0 -237 129 -376.5
t346 -139.5q149 0 215 38q59 32 116.5 115t96.5 189l10 8q49 -18 72 -47q-36 -141 -115 -344l-20 -13q-94 -8 -109 -10l-43 -6l-86 -12q-90 -11 -149 -11q-315 0 -481.5 152.5t-166.5 447.5zM825 1571v10l381 246q102 -35 183 -96v-25l-525 -188q-27 15 -39 53z" />
    <glyph glyph-name="cacute" unicode="&#x107;" horiz-adv-x="792" 
d="M-12 246q0 147 75 307q75 161 205 272q126 111 271 111q92 0 140 -35t48 -96q0 -42 -31.5 -82t-87.5 -66l-16 2q-9 205 -103 205q-51 4 -110.5 -51t-107.5 -139.5t-79.5 -193t-29.5 -204.5q0 -99 30.5 -145.5t98.5 -46.5q51 0 124.5 48.5t145.5 129.5l12 -4
q-6 -60 -32 -121q-157 -164 -330 -164q-104 0 -163.5 70.5t-59.5 202.5zM473 1098v12l260 354q99 12 230 9v-23l-433 -391q-40 10 -57 39z" />
    <glyph glyph-name="Ccircumflex" unicode="&#x108;" horiz-adv-x="1417" 
d="M104 573q-2 183 63.5 341.5t180 268t273.5 171t340 59.5q89 0 239 -27q115 -16 141 -16q42 0 52 2l12 -14q-25 -192 -66 -373l-8 -12q-30 -15 -88 -12q4 118 4 155q0 105 -68 155t-221 50q-134 2 -258 -54t-215.5 -153.5t-145 -237t-50.5 -294.5q0 -237 129 -376.5
t346 -139.5q149 0 215 38q59 32 116.5 115t96.5 189l10 8q49 -18 72 -47q-36 -141 -115 -344l-20 -13q-94 -8 -109 -10l-43 -6l-86 -12q-90 -11 -149 -11q-315 0 -481.5 152.5t-166.5 447.5zM674 1563l2 10l309 262h119l12 -6l203 -277q-16 -29 -62 -47h-12l-205 183h-20
l-301 -185q-38 25 -45 60z" />
    <glyph glyph-name="ccircumflex" unicode="&#x109;" horiz-adv-x="792" 
d="M-12 246q0 147 75 307q75 161 205 272q126 111 271 111q92 0 140 -35t48 -96q0 -42 -31.5 -82t-87.5 -66l-16 2q-9 205 -103 205q-51 4 -110.5 -51t-107.5 -139.5t-79.5 -193t-29.5 -204.5q0 -99 30.5 -145.5t98.5 -46.5q51 0 124.5 48.5t145.5 129.5l12 -4
q-6 -60 -32 -121q-157 -164 -330 -164q-104 0 -163.5 70.5t-59.5 202.5zM313 1110l-2 12l291 344h109l12 -10l117 -354q-25 -29 -72 -29l-10 6l-117 226h-20l-252 -238q-17 1 -32.5 13.5t-23.5 29.5z" />
    <glyph glyph-name="Cdotaccent" unicode="&#x10a;" horiz-adv-x="1417" 
d="M104 573q-2 183 63.5 341.5t180 268t273.5 171t340 59.5q89 0 239 -27q115 -16 141 -16q42 0 52 2l12 -14q-25 -192 -66 -373l-8 -12q-30 -15 -88 -12q4 118 4 155q0 105 -68 155t-221 50q-134 2 -258 -54t-215.5 -153.5t-145 -237t-50.5 -294.5q0 -237 129 -376.5
t346 -139.5q149 0 215 38q59 32 116.5 115t96.5 189l10 8q49 -18 72 -47q-36 -141 -115 -344l-20 -13q-94 -8 -109 -10l-43 -6l-86 -12q-90 -11 -149 -11q-315 0 -481.5 152.5t-166.5 447.5zM911 1645q0 51 37.5 86.5t91.5 35.5q42 0 73.5 -30.5t31.5 -71.5q0 -55 -35.5 -91
t-89.5 -36q-43 0 -76 32t-33 75z" />
    <glyph glyph-name="cdotaccent" unicode="&#x10b;" horiz-adv-x="792" 
d="M-12 246q0 147 75 307q75 161 205 272q126 111 271 111q92 0 140 -35t48 -96q0 -42 -31.5 -82t-87.5 -66l-16 2q-9 205 -103 205q-51 4 -110.5 -51t-107.5 -139.5t-79.5 -193t-29.5 -204.5q0 -99 30.5 -145.5t98.5 -46.5q51 0 124.5 48.5t145.5 129.5l12 -4
q-6 -60 -32 -121q-157 -164 -330 -164q-104 0 -163.5 70.5t-59.5 202.5zM485 1264q0 51 37.5 86.5t91.5 35.5q42 0 73.5 -30.5t31.5 -71.5q0 -55 -35.5 -91t-89.5 -36q-43 0 -76 32t-33 75z" />
    <glyph glyph-name="Ccaron" unicode="&#x10c;" horiz-adv-x="1417" 
d="M104 573q-2 183 63.5 341.5t180 268t273.5 171t340 59.5q89 0 239 -27q115 -16 141 -16q42 0 52 2l12 -14q-25 -192 -66 -373l-8 -12q-30 -15 -88 -12q4 118 4 155q0 105 -68 155t-221 50q-134 2 -258 -54t-215.5 -153.5t-145 -237t-50.5 -294.5q0 -237 129 -376.5
t346 -139.5q149 0 215 38q59 32 116.5 115t96.5 189l10 8q49 -18 72 -47q-36 -141 -115 -344l-20 -13q-94 -8 -109 -10l-43 -6l-86 -12q-90 -11 -149 -11q-315 0 -481.5 152.5t-166.5 447.5zM940 1550l-12 6l-193 267q16 28 56 43h12l203 -180h20l303 182q28 -22 37 -56
l-2 -10l-305 -252h-119z" />
    <glyph glyph-name="ccaron" unicode="&#x10d;" horiz-adv-x="792" 
d="M-12 246q0 147 75 307q75 161 205 272q126 111 271 111q92 0 140 -35t48 -96q0 -42 -31.5 -82t-87.5 -66l-16 2q-9 205 -103 205q-51 4 -110.5 -51t-107.5 -139.5t-79.5 -193t-29.5 -204.5q0 -99 30.5 -145.5t98.5 -46.5q51 0 124.5 48.5t145.5 129.5l12 -4
q-6 -60 -32 -121q-157 -164 -330 -164q-104 0 -163.5 70.5t-59.5 202.5zM494 1092l-13 10l-123 346q17 20 72 29l10 -7l115 -219h20l248 230q16 -1 33 -13.5t25 -25.5l2 -12l-297 -338h-92z" />
    <glyph glyph-name="Dcaron" unicode="&#x10e;" horiz-adv-x="1562" 
d="M-12 68l10 6l104 24q46 12 52 43l122 596l70 336q3 9 7.5 34.5t8.5 39.5q19 100 19 115q0 12 -5.5 16.5t-23.5 9.5l-119 21q2 19 21 75l10 7q107 -5 207 -5q13 0 57.5 2t73.5 3l125 2q224 0 363.5 -41.5t226.5 -134.5q70 -73 105.5 -179.5t35.5 -228.5q0 -173 -70.5 -332
t-203.5 -280q-218 -203 -619 -203q-49 0 -209 4l-147 2q-154 0 -242 -8q2 33 21 76zM1071 285q96 101 148.5 240t52.5 272q0 262 -131.5 384t-413.5 122q-37 0 -115 -5q-26 -2 -37.5 -11.5t-17.5 -35.5q-72 -322 -113 -530l-82 -420q-20 -103 -20 -139q0 -45 45 -60
q55 -18 191 -18q301 0 493 201zM891 1550l-12 6l-193 267q16 28 55 43h13l202 -180h21l303 182q28 -22 37 -56l-2 -10l-305 -252h-119z" />
    <glyph glyph-name="dcaron" unicode="&#x10f;" horiz-adv-x="1091" 
d="M-27 174q0 226 131 436q84 140 222 232q137 94 266 94q95 0 133 -53h4l84 334q27 108 27 135q0 19 -25 22q-78 12 -110 15q9 39 20 59l6 6q176 27 277 41l30 -18l-182 -746q-29 -125 -57 -221l-41 -158q-41 -178 -41 -209q0 -26 22 -26q32 0 94.5 54t124.5 134l13 -4
q-7 -61 -39 -143q-69 -81 -151 -133t-144 -52q-36 0 -58 24t-22 58q0 58 88 367h-12q-129 -219 -262 -332q-138 -117 -236 -117q-76 0 -119 52t-43 149zM639 590q29 57 57 145q6 61 -16 95t-66 34q-75 4 -165 -71t-160.5 -181t-108.5 -209q-61 -162 -61 -266q0 -32 13 -51.5
t34 -19.5q50 0 126 58t171 181.5t176 284.5zM1038 1057v10q119 71 161 116t42 111q0 51 -31 115q-16 37 -16 49q0 24 21.5 38.5t54.5 14.5q58 0 93.5 -29.5t35.5 -82.5q0 -110 -78 -207t-221 -172q-38 13 -62 37z" />
    <glyph glyph-name="Dcroat" unicode="&#x110;" horiz-adv-x="1562" 
d="M-12 68l10 6l104 24q46 12 52 43l114 553q-40 -6 -108 -6h-90q5 44 22 82l12 10h181l61 293q3 9 7.5 34.5t8.5 39.5q19 100 19 115q0 12 -5.5 16.5t-23.5 9.5l-119 21q2 19 21 75l10 7q107 -5 207 -5q13 0 57.5 2t73.5 3l125 2q224 0 363.5 -41.5t226.5 -134.5
q70 -73 105.5 -179.5t35.5 -228.5q0 -172 -70.5 -329.5t-203.5 -278.5q-226 -207 -619 -207q-49 0 -209 4l-147 2q-154 0 -242 -8q2 33 21 76zM1071 285q96 102 148.5 238.5t52.5 269.5q0 264 -132 387t-413 123q-37 0 -115 -5q-26 -2 -37.5 -11.5t-17.5 -35.5
q-62 -270 -104 -485q52 14 151 14h201q-8 -52 -25 -82l-14 -10h-328l-76 -387q-20 -103 -20 -139q0 -45 45 -60q55 -18 191 -18q301 0 493 201z" />
    <glyph glyph-name="dslash" unicode="&#x111;" horiz-adv-x="1091" 
d="M-27 174q0 226 131 436q84 140 222 232q137 94 266 94q95 0 133 -53h4l57 229q-54 -4 -104 -4h-170q3 36 12 72l8 10h275q33 121 33 162q0 19 -25 22q-78 12 -110 15q9 39 20 59l6 6q176 27 277 41l30 -18l-73 -299q53 12 143 12h49q-3 -36 -12 -72l-8 -10h-189l-92 -377
l-51 -199l-47 -180q-41 -178 -41 -209q0 -26 22 -26q32 0 94.5 54t124.5 134l13 -4q-7 -61 -39 -143q-69 -81 -151 -133t-144 -52q-36 0 -58 24t-22 58q0 58 88 367h-12q-129 -219 -262 -332q-138 -117 -236 -117q-76 0 -119 52t-43 149zM639 590q29 57 57 145q6 61 -16 95
t-66 34q-75 4 -165 -71t-160.5 -181t-108.5 -209q-61 -162 -61 -266q0 -32 13 -51.5t34 -19.5q50 0 126 58t171 181.5t176 284.5z" />
    <glyph glyph-name="Emacron" unicode="&#x112;" horiz-adv-x="1251" 
d="M-10 68l10 6l121 30q27 9 33 39l206 990q23 118 23 129q0 10 -3.5 13.5t-14.5 8.5q-48 16 -129 25q7 51 20 75l10 7q205 -5 475 -5q317 0 480 13l10 -8q-27 -223 -51 -371l-9 -10q-30 -9 -84 -9q0 135 -2 164q-1 71 -19.5 95.5t-70.5 29.5q-74 6 -180 6q-55 0 -207 -4
q-25 -2 -36 -11t-15 -34l-100 -499q70 4 98 4h117q74 0 98 53q31 60 55 119l6 4q4 2 23 2q28 0 61 -10q-57 -235 -69 -455l-8 -6q-34 -7 -80 -4q-3 56 -19 133q-8 39 -24.5 54t-52.5 15h-226l-57 -280q-37 -179 -37 -219q0 -34 21.5 -49t66.5 -15h299q93 0 141.5 27t85.5 90
q38 65 78 172l13 8q37 -8 67 -35q-38 -193 -88 -354l-14 -8l-74 2q-168 4 -236 4h-485q-117 0 -248 -8q2 33 21 76zM604 1696l10 6h525q-3 -50 -23 -105l-10 -6h-526q6 61 24 105z" />
    <glyph glyph-name="emacron" unicode="&#x113;" horiz-adv-x="808" 
d="M-12 262q0 163 88 318q88 156 225 256q135 100 264 100q79 0 126.5 -39.5t47.5 -101.5q0 -135 -164 -230q-165 -95 -399 -153q-14 -55 -14 -131q0 -199 125 -199q134 0 284 180l13 -4q-10 -58 -35 -123q-59 -70 -145.5 -116t-170.5 -46q-125 0 -185 70t-60 219zM578 805
q0 59 -52 59q-86 0 -187 -114.5t-146 -268.5q385 137 385 324zM356 1276l11 6h524q-3 -54 -23 -104l-12 -7h-528q18 79 28 105z" />
    <glyph glyph-name="Ebreve" unicode="&#x114;" horiz-adv-x="1251" 
d="M-10 68l10 6l121 30q27 9 33 39l206 990q23 118 23 129q0 10 -3.5 13.5t-14.5 8.5q-48 16 -129 25q7 51 20 75l10 7q205 -5 475 -5q317 0 480 13l10 -8q-27 -223 -51 -371l-9 -10q-30 -9 -84 -9q0 135 -2 164q-1 71 -19.5 95.5t-70.5 29.5q-74 6 -180 6q-55 0 -207 -4
q-25 -2 -36 -11t-15 -34l-100 -499q70 4 98 4h117q74 0 98 53q31 60 55 119l6 4q4 2 23 2q28 0 61 -10q-57 -235 -69 -455l-8 -6q-34 -7 -80 -4q-3 56 -19 133q-8 39 -24.5 54t-52.5 15h-226l-57 -280q-37 -179 -37 -219q0 -34 21.5 -49t66.5 -15h299q93 0 141.5 27t85.5 90
q38 65 78 172l13 8q37 -8 67 -35q-38 -193 -88 -354l-14 -8l-74 2q-168 4 -236 4h-485q-117 0 -248 -8q2 33 21 76zM586 1798l4 10q22 22 63 33q31 -83 86.5 -129.5t126.5 -46.5q146 0 269 176l10 6q30 -30 41 -71q-57 -105 -145.5 -171.5t-188.5 -66.5q-102 0 -172 70
t-94 190z" />
    <glyph glyph-name="ebreve" unicode="&#x115;" horiz-adv-x="808" 
d="M-12 262q0 163 88 318q88 156 225 256q135 100 264 100q79 0 126.5 -39.5t47.5 -101.5q0 -135 -164 -230q-165 -95 -399 -153q-14 -55 -14 -131q0 -199 125 -199q134 0 284 180l13 -4q-10 -58 -35 -123q-59 -70 -145.5 -116t-170.5 -46q-125 0 -185 70t-60 219zM578 805
q0 59 -52 59q-86 0 -187 -114.5t-146 -268.5q385 137 385 324zM319 1370l5 10q25 25 57 33q19 -89 71.5 -146t122.5 -57q78 0 157.5 57t129.5 146l10 6q19 -22 35 -71q-46 -108 -143 -183q-95 -71 -199 -71q-101 0 -164.5 73t-81.5 203z" />
    <glyph glyph-name="Edotaccent" unicode="&#x116;" horiz-adv-x="1251" 
d="M-10 68l10 6l121 30q27 9 33 39l206 990q23 118 23 129q0 10 -3.5 13.5t-14.5 8.5q-48 16 -129 25q7 51 20 75l10 7q205 -5 475 -5q317 0 480 13l10 -8q-27 -223 -51 -371l-9 -10q-30 -9 -84 -9q0 135 -2 164q-1 71 -19.5 95.5t-70.5 29.5q-74 6 -180 6q-55 0 -207 -4
q-25 -2 -36 -11t-15 -34l-100 -499q70 4 98 4h117q74 0 98 53q31 60 55 119l6 4q4 2 23 2q28 0 61 -10q-57 -235 -69 -455l-8 -6q-34 -7 -80 -4q-3 56 -19 133q-8 39 -24.5 54t-52.5 15h-226l-57 -280q-37 -179 -37 -219q0 -34 21.5 -49t66.5 -15h299q93 0 141.5 27t85.5 90
q38 65 78 172l13 8q37 -8 67 -35q-38 -193 -88 -354l-14 -8l-74 2q-168 4 -236 4h-485q-117 0 -248 -8q2 33 21 76zM750 1645q0 51 37.5 86.5t91.5 35.5q41 0 72.5 -30.5t31.5 -71.5q0 -55 -35.5 -91t-89.5 -36q-43 0 -75.5 32t-32.5 75z" />
    <glyph glyph-name="edotaccent" unicode="&#x117;" horiz-adv-x="808" 
d="M-12 262q0 163 88 318q88 156 225 256q135 100 264 100q79 0 126.5 -39.5t47.5 -101.5q0 -135 -164 -230q-165 -95 -399 -153q-14 -55 -14 -131q0 -199 125 -199q134 0 284 180l13 -4q-10 -58 -35 -123q-59 -70 -145.5 -116t-170.5 -46q-125 0 -185 70t-60 219zM578 805
q0 59 -52 59q-86 0 -187 -114.5t-146 -268.5q385 137 385 324zM485 1264q0 51 37.5 86.5t91.5 35.5q42 0 73.5 -30.5t31.5 -71.5q0 -55 -35.5 -91t-89.5 -36q-43 0 -76 32t-33 75z" />
    <glyph glyph-name="Eogonek" unicode="&#x118;" horiz-adv-x="1251" 
d="M-10 68l10 6l121 30q27 9 33 39l206 990q23 118 23 129q0 10 -3.5 13.5t-14.5 8.5q-48 16 -129 25q7 51 20 75l10 7q205 -5 475 -5q317 0 480 13l10 -8q-27 -223 -51 -371l-9 -10q-30 -9 -84 -9q0 135 -2 164q-1 71 -19.5 95.5t-70.5 29.5q-74 6 -180 6q-55 0 -207 -4
q-25 -2 -36 -11t-15 -34l-100 -499q70 4 98 4h117q74 0 98 53q31 60 55 119l6 4q4 2 23 2q28 0 61 -10q-57 -235 -69 -455l-8 -6q-34 -7 -80 -4q-3 56 -19 133q-8 39 -24.5 54t-52.5 15h-226l-57 -280q-37 -179 -37 -219q0 -34 21.5 -49t66.5 -15h299q93 0 141.5 27t85.5 90
q38 65 78 172l13 8q37 -8 67 -35q-38 -193 -88 -354l-14 -8l-74 2q-168 4 -236 4h-485q-117 0 -248 -8q2 33 21 76zM469 -385q0 112 123 235q131 128 291 213h10l65 -32q-153 -89 -239 -178.5t-86 -190.5q0 -44 21.5 -71t58.5 -27q64 0 143 55l12 -2q0 -43 -10 -76
q-101 -82 -223 -82q-75 0 -120.5 42t-45.5 114z" />
    <glyph glyph-name="eogonek" unicode="&#x119;" horiz-adv-x="808" 
d="M47 -385q0 76 69 174t181 188l-2 9q-41 -13 -70 -13q-237 0 -237 289q0 163 88 318q88 156 225 256q135 100 264 100q79 0 126.5 -39.5t47.5 -101.5q0 -135 -164 -230q-165 -95 -399 -153q-14 -55 -14 -131q0 -199 125 -199q134 0 284 180l13 -4q-10 -58 -35 -123
q-25 -31 -84 -78q-102 -76 -178 -184q-76 -107 -76 -211q0 -44 21.5 -71t58.5 -27q64 0 143 55l12 -2q-3 -44 -10 -76q-107 -82 -223 -82q-75 0 -120.5 42t-45.5 114zM578 805q0 59 -52 59q-86 0 -187 -114.5t-146 -268.5q385 137 385 324z" />
    <glyph glyph-name="Ecaron" unicode="&#x11a;" horiz-adv-x="1251" 
d="M-10 68l10 6l121 30q27 9 33 39l206 990q23 118 23 129q0 10 -3.5 13.5t-14.5 8.5q-48 16 -129 25q7 51 20 75l10 7q205 -5 475 -5q317 0 480 13l10 -8q-27 -223 -51 -371l-9 -10q-30 -9 -84 -9q0 135 -2 164q-1 71 -19.5 95.5t-70.5 29.5q-74 6 -180 6q-55 0 -207 -4
q-25 -2 -36 -11t-15 -34l-100 -499q70 4 98 4h117q74 0 98 53q31 60 55 119l6 4q4 2 23 2q28 0 61 -10q-57 -235 -69 -455l-8 -6q-34 -7 -80 -4q-3 56 -19 133q-8 39 -24.5 54t-52.5 15h-226l-57 -280q-37 -179 -37 -219q0 -34 21.5 -49t66.5 -15h299q93 0 141.5 27t85.5 90
q38 65 78 172l13 8q37 -8 67 -35q-38 -193 -88 -354l-14 -8l-74 2q-168 4 -236 4h-485q-117 0 -248 -8q2 33 21 76zM778 1550l-12 6l-193 267q16 28 56 43h12l203 -180h20l303 182q28 -22 37 -56l-2 -10l-305 -252h-119z" />
    <glyph glyph-name="ecaron" unicode="&#x11b;" horiz-adv-x="808" 
d="M-12 262q0 163 88 318q88 156 225 256q135 100 264 100q79 0 126.5 -39.5t47.5 -101.5q0 -135 -164 -230q-165 -95 -399 -153q-14 -55 -14 -131q0 -199 125 -199q134 0 284 180l13 -4q-10 -58 -35 -123q-59 -70 -145.5 -116t-170.5 -46q-125 0 -185 70t-60 219zM578 805
q0 59 -52 59q-86 0 -187 -114.5t-146 -268.5q385 137 385 324zM494 1092l-13 10l-123 346q17 20 72 29l10 -7l115 -219h20l248 230q16 -1 33 -13.5t25 -25.5l2 -12l-297 -338h-92z" />
    <glyph glyph-name="Gcircumflex" unicode="&#x11c;" horiz-adv-x="1521" 
d="M104 573q-3 175 65 333t184.5 269.5t276 176t333.5 61.5q120 0 276 -27q106 -16 131 -16q33 0 43 2l12 -14q-18 -140 -63 -375l-8 -12q-23 -13 -70 -13q-19 0 -22 3q2 14 2 81q0 73 -2 91q-4 99 -75 143.5t-218 44.5q-137 2 -262.5 -54.5t-218.5 -154.5t-147 -237.5
t-52 -294.5q0 -244 134.5 -380.5t346.5 -136.5q140 0 238 39q22 8 32 39l35 160l10 55q17 87 17 99q0 17 -8 25t-33 14q-58 12 -164 24q9 59 21 80l8 6q135 -6 268 -6q150 0 270 14q-10 -68 -16 -82l-8 -8l-119 -24q-35 -9 -41 -43l-33 -156q-26 -130 -26 -197q0 -33 2 -41
l-11 -10q-96 -36 -217.5 -57t-232.5 -21q-327 0 -492.5 154t-165.5 446zM647 1563l2 10l309 262h119l13 -6l202 -277q-17 -30 -61 -47h-12l-205 183h-21l-301 -185q-38 25 -45 60z" />
    <glyph glyph-name="gcircumflex" unicode="&#x11d;" horiz-adv-x="845" 
d="M-283 -338q0 94 123 157.5t303 63.5q39 0 45 -2v6q-204 76 -204 179q0 44 49.5 89.5t144.5 82.5v8q-81 27 -126.5 87.5t-45.5 149.5q-3 111 56 217t162.5 172.5t217.5 63.5q80 0 154 -47q17 -10 43 -10q75 0 227 36l11 -4q-14 -56 -43 -110q-82 0 -189 8l-2 -6
q33 -50 33 -129q0 -148 -105.5 -277t-265.5 -153q-71 -23 -114.5 -62t-43.5 -76q0 -36 29.5 -64t95.5 -52l134 -49q133 -50 191 -101.5t58 -122.5q0 -73 -62 -140t-174 -109.5t-245 -42.5q-206 0 -331.5 68t-125.5 169zM514 737q0 131 -90 131q-69 4 -128.5 -68t-90 -170
t-29.5 -184q0 -137 90 -137q57 -4 116.5 64.5t96.5 170.5t35 193zM512 -332q0 44 -37 83t-115 67l-53 18q-8 2 -39 2q-168 0 -268 -44t-100 -122t84.5 -125t226.5 -47q125 0 213 49t88 119zM236 1110l-3 12l291 344h109l12 -10l117 -354q-25 -29 -72 -29l-10 6l-117 226h-20
l-252 -238q-17 1 -32 13.5t-23 29.5z" />
    <glyph glyph-name="Gbreve" unicode="&#x11e;" horiz-adv-x="1521" 
d="M104 573q-3 175 65 333t184.5 269.5t276 176t333.5 61.5q120 0 276 -27q106 -16 131 -16q33 0 43 2l12 -14q-18 -140 -63 -375l-8 -12q-23 -13 -70 -13q-19 0 -22 3q2 14 2 81q0 73 -2 91q-4 99 -75 143.5t-218 44.5q-137 2 -262.5 -54.5t-218.5 -154.5t-147 -237.5
t-52 -294.5q0 -244 134.5 -380.5t346.5 -136.5q140 0 238 39q22 8 32 39l35 160l10 55q17 87 17 99q0 17 -8 25t-33 14q-58 12 -164 24q9 59 21 80l8 6q135 -6 268 -6q150 0 270 14q-10 -68 -16 -82l-8 -8l-119 -24q-35 -9 -41 -43l-33 -156q-26 -130 -26 -197q0 -33 2 -41
l-11 -10q-96 -36 -217.5 -57t-232.5 -21q-327 0 -492.5 154t-165.5 446zM721 1798l4 10q22 22 63 33q31 -83 86.5 -129.5t126.5 -46.5q146 0 269 176l10 6q30 -30 41 -71q-57 -105 -145.5 -171.5t-188.5 -66.5q-102 0 -172 70t-94 190z" />
    <glyph glyph-name="gbreve" unicode="&#x11f;" horiz-adv-x="845" 
d="M-283 -338q0 94 123 157.5t303 63.5q39 0 45 -2v6q-204 76 -204 179q0 44 49.5 89.5t144.5 82.5v8q-81 27 -126.5 87.5t-45.5 149.5q-3 111 56 217t162.5 172.5t217.5 63.5q80 0 154 -47q17 -10 43 -10q75 0 227 36l11 -4q-14 -56 -43 -110q-82 0 -189 8l-2 -6
q33 -50 33 -129q0 -148 -105.5 -277t-265.5 -153q-71 -23 -114.5 -62t-43.5 -76q0 -36 29.5 -64t95.5 -52l134 -49q133 -50 191 -101.5t58 -122.5q0 -73 -62 -140t-174 -109.5t-245 -42.5q-206 0 -331.5 68t-125.5 169zM514 737q0 131 -90 131q-69 4 -128.5 -68t-90 -170
t-29.5 -184q0 -137 90 -137q57 -4 116.5 64.5t96.5 170.5t35 193zM512 -332q0 44 -37 83t-115 67l-53 18q-8 2 -39 2q-168 0 -268 -44t-100 -122t84.5 -125t226.5 -47q125 0 213 49t88 119zM242 1370l4 10q25 25 57 33q19 -89 72 -146t123 -57q78 0 157 57t129 146l11 6
q18 -20 34 -71q-46 -108 -143 -183q-95 -71 -199 -71q-101 0 -164 73t-81 203z" />
    <glyph glyph-name="Gdotaccent" unicode="&#x120;" horiz-adv-x="1521" 
d="M104 573q-3 175 65 333t184.5 269.5t276 176t333.5 61.5q120 0 276 -27q106 -16 131 -16q33 0 43 2l12 -14q-18 -140 -63 -375l-8 -12q-23 -13 -70 -13q-19 0 -22 3q2 14 2 81q0 73 -2 91q-4 99 -75 143.5t-218 44.5q-137 2 -262.5 -54.5t-218.5 -154.5t-147 -237.5
t-52 -294.5q0 -244 134.5 -380.5t346.5 -136.5q140 0 238 39q22 8 32 39l35 160l10 55q17 87 17 99q0 17 -8 25t-33 14q-58 12 -164 24q9 59 21 80l8 6q135 -6 268 -6q150 0 270 14q-10 -68 -16 -82l-8 -8l-119 -24q-35 -9 -41 -43l-33 -156q-26 -130 -26 -197q0 -33 2 -41
l-11 -10q-96 -36 -217.5 -57t-232.5 -21q-327 0 -492.5 154t-165.5 446zM885 1645q0 51 37.5 86.5t91.5 35.5q41 0 72.5 -30.5t31.5 -71.5q0 -55 -35.5 -91t-89.5 -36q-43 0 -75.5 32t-32.5 75z" />
    <glyph glyph-name="gdotaccent" unicode="&#x121;" horiz-adv-x="845" 
d="M-283 -338q0 94 123 157.5t303 63.5q39 0 45 -2v6q-204 76 -204 179q0 44 49.5 89.5t144.5 82.5v8q-81 27 -126.5 87.5t-45.5 149.5q-3 111 56 217t162.5 172.5t217.5 63.5q80 0 154 -47q17 -10 43 -10q75 0 227 36l11 -4q-14 -56 -43 -110q-82 0 -189 8l-2 -6
q33 -50 33 -129q0 -148 -105.5 -277t-265.5 -153q-71 -23 -114.5 -62t-43.5 -76q0 -36 29.5 -64t95.5 -52l134 -49q133 -50 191 -101.5t58 -122.5q0 -73 -62 -140t-174 -109.5t-245 -42.5q-206 0 -331.5 68t-125.5 169zM514 737q0 131 -90 131q-69 4 -128.5 -68t-90 -170
t-29.5 -184q0 -137 90 -137q57 -4 116.5 64.5t96.5 170.5t35 193zM512 -332q0 44 -37 83t-115 67l-53 18q-8 2 -39 2q-168 0 -268 -44t-100 -122t84.5 -125t226.5 -47q125 0 213 49t88 119zM408 1264q0 51 37.5 86.5t91.5 35.5q41 0 72.5 -30.5t31.5 -71.5q0 -55 -35.5 -91
t-89.5 -36q-43 0 -75.5 32t-32.5 75z" />
    <glyph glyph-name="Gcommaaccent" unicode="&#x122;" horiz-adv-x="1521" 
d="M104 573q-3 175 65 333t184.5 269.5t276 176t333.5 61.5q120 0 276 -27q106 -16 131 -16q33 0 43 2l12 -14q-18 -140 -63 -375l-8 -12q-23 -13 -70 -13q-19 0 -22 3q2 14 2 81q0 73 -2 91q-4 99 -75 143.5t-218 44.5q-137 2 -262.5 -54.5t-218.5 -154.5t-147 -237.5
t-52 -294.5q0 -244 134.5 -380.5t346.5 -136.5q140 0 238 39q22 8 32 39l35 160l10 55q17 87 17 99q0 17 -8 25t-33 14q-58 12 -164 24q9 59 21 80l8 6q135 -6 268 -6q150 0 270 14q-10 -68 -16 -82l-8 -8l-119 -24q-35 -9 -41 -43l-33 -156q-26 -130 -26 -197q0 -33 2 -41
l-11 -10q-96 -36 -217.5 -57t-232.5 -21q-327 0 -492.5 154t-165.5 446zM465 -559l4 10q96 20 156.5 63t60.5 101q0 65 -94 102q-25 9 -25 33q0 42 38.5 72.5t92.5 30.5q51 0 91 -41.5t40 -102.5q0 -117 -79.5 -201t-221.5 -116q-39 22 -63 49z" />
    <glyph glyph-name="gcommaaccent" unicode="&#x123;" horiz-adv-x="845" 
d="M-283 -338q0 94 123 157.5t303 63.5q39 0 45 -2v6q-204 76 -204 179q0 44 49.5 89.5t144.5 82.5v8q-81 27 -126.5 87.5t-45.5 149.5q-3 111 56 217t162.5 172.5t217.5 63.5q80 0 154 -47q17 -10 43 -10q75 0 227 36l11 -4q-14 -56 -43 -110q-82 0 -189 8l-2 -6
q33 -50 33 -129q0 -148 -105.5 -277t-265.5 -153q-71 -23 -114.5 -62t-43.5 -76q0 -36 29.5 -64t95.5 -52l134 -49q133 -50 191 -101.5t58 -122.5q0 -73 -62 -140t-174 -109.5t-245 -42.5q-206 0 -331.5 68t-125.5 169zM514 737q0 131 -90 131q-69 4 -128.5 -68t-90 -170
t-29.5 -184q0 -137 90 -137q57 -4 116.5 64.5t96.5 170.5t35 193zM512 -332q0 44 -37 83t-115 67l-53 18q-8 2 -39 2q-168 0 -268 -44t-100 -122t84.5 -125t226.5 -47q125 0 213 49t88 119zM725 1468l-4 -10q-96 -20 -156.5 -63t-60.5 -101q0 -65 94 -102q25 -9 25 -33
q0 -41 -38.5 -71.5t-92.5 -30.5q-52 0 -92 41t-40 102q0 117 80 201.5t222 116.5q37 -21 63 -50z" />
    <glyph glyph-name="Hcircumflex" unicode="&#x124;" horiz-adv-x="1589" 
d="M-10 68l10 6q57 9 121 30q27 9 33 39l206 1008q15 71 15 96q0 19 -9.5 29t-33.5 16q-79 18 -111 23q3 44 19 76l6 4q117 -9 248 -9q133 0 247 9q-3 -41 -20 -76l-10 -6q-72 -14 -121 -31q-14 -5 -21.5 -13t-11.5 -26l-41 -190q0 -1 -7.5 -36.5t-23 -108t-32.5 -156.5
q71 6 147 6h551l80 393q14 66 14 96q0 19 -9.5 29t-33.5 16q-72 17 -110 23q3 49 18 76l6 4q117 -9 248 -9q134 0 248 9q-3 -39 -21 -76l-10 -6q-68 -14 -121 -31q-31 -10 -33 -39l-206 -1007q-15 -77 -15 -99q0 -19 7.5 -27t31.5 -14q57 -15 115 -24q-3 -47 -19 -76l-6 -4
q-104 8 -248 8q-146 0 -247 -8q3 41 20 76l10 6q51 10 121 30q27 9 33 39l106 516q-114 -4 -155 -4h-541l-84 -419q-14 -66 -14 -97q0 -19 9.5 -29t33.5 -16q63 -14 110 -22q-3 -49 -18 -76l-6 -4q-104 8 -248 8q-147 0 -248 -8q3 39 21 76zM635 1563l2 10l309 262h119
l12 -6l203 -277q-17 -30 -61 -47h-13l-205 183h-20l-301 -185q-38 25 -45 60z" />
    <glyph glyph-name="hcircumflex" unicode="&#x125;" horiz-adv-x="1073" 
d="M489 49q0 29 48 178l120 367q54 160 54 197q0 45 -35 45q-48 5 -143 -100.5t-197.5 -270t-177.5 -330.5q-37 -82 -58 -143l-14 -8q-6 -2 -29 -2q-58 0 -80 36q41 136 70 258l33 125q28 112 97 389t108 435q24 102 24 127q0 19 -24 22q-77 12 -111 15q8 36 21 59l6 6
q169 29 276 41l31 -18l-115 -467q-34 -144 -69 -252l-107 -330h14q155 271 273 389q116 119 241 119t125 -125q0 -64 -53 -229l-127 -377q-18 -58 -18 -74t16 -16q28 0 98 55q73 57 129 125l13 -4q-11 -64 -31 -121q-65 -77 -156 -137t-163 -60q-41 0 -65 22t-24 54z
M78 1585l2 10l309 263h119l12 -7l203 -276q-17 -30 -61 -47h-13l-205 182h-20l-301 -184q-38 26 -45 59z" />
    <glyph glyph-name="Hbar" unicode="&#x126;" horiz-adv-x="1589" 
d="M-10 68l10 6q82 15 121 30q27 9 33 39l174 854q-40 -6 -109 -6h-90q5 40 23 82l12 10h182q29 148 29 164q0 19 -9.5 29t-33.5 16q-79 18 -111 23q8 55 19 76l6 4q117 -9 248 -9q133 0 247 9q-3 -36 -20 -76l-10 -6q-68 -14 -121 -31q-27 -9 -33 -39l-37 -174
q49 14 154 14h543q28 143 28 164q0 19 -9.5 29t-33.5 16q-82 18 -110 23q9 58 18 76l6 4q117 -9 248 -9q134 0 248 9q-2 -33 -21 -76l-10 -6q-76 -14 -121 -31q-27 -9 -33 -39l-36 -172q62 12 122 12h82q-5 -44 -22 -82l-12 -10h-187l-153 -755q-15 -70 -15 -97
q0 -19 9.5 -29t33.5 -16q60 -13 111 -22q-8 -55 -19 -76l-6 -4q-104 8 -248 8q-146 0 -247 -8q3 36 20 76l10 6q82 15 121 30q27 9 33 39l106 516q-62 -4 -155 -4h-541l-84 -419q-14 -66 -14 -97q0 -19 9.5 -29t33.5 -16q63 -14 110 -22q-9 -58 -18 -76l-6 -4q-104 8 -248 8
q-147 0 -248 -8q2 33 21 76zM600 758h551l49 241q-44 -8 -133 -8h-565l-49 -239q71 6 147 6z" />
    <glyph glyph-name="hbar" unicode="&#x127;" horiz-adv-x="1073" 
d="M489 49q0 29 48 178l120 367q54 160 54 197q0 45 -35 45q-48 5 -143 -100.5t-197.5 -270t-177.5 -330.5q-37 -82 -58 -143l-14 -8q-6 -2 -29 -2q-58 0 -80 36q38 126 70 258q30 118 37 142l174 696q-38 -6 -88 -6h-72q2 31 13 72l8 10h157q33 126 33 162q0 19 -24 22
q-77 12 -111 15q8 36 21 59l6 6q184 28 276 41l31 -18l-74 -301q46 14 146 14h170q-2 -31 -13 -72l-8 -10h-311l-25 -98q-47 -195 -176 -582h14q155 271 273 389q116 119 241 119t125 -125q0 -64 -53 -229l-127 -377q-18 -58 -18 -74t16 -16q28 0 98 55q73 57 129 125l13 -4
q-11 -64 -31 -121q-65 -77 -156 -137t-163 -60q-41 0 -65 22t-24 54z" />
    <glyph glyph-name="Itilde" unicode="&#x128;" horiz-adv-x="718" 
d="M-10 68l10 6q55 8 121 30q27 9 33 39l206 1008q15 71 15 96q0 19 -9.5 29t-33.5 16q-79 18 -111 23q3 44 19 76l6 4q117 -9 248 -9q133 0 247 9q-3 -38 -20 -78l-6 -6q-31 -5 -125 -29q-27 -6 -33 -39l-207 -1007q-14 -66 -14 -97q0 -19 9.5 -29t33.5 -16q61 -15 110 -22
q-3 -49 -18 -76l-6 -4q-104 8 -248 8q-147 0 -248 -8q2 33 21 76zM172 1595q132 170 240 170q55 0 151 -41q83 -38 133 -38q74 0 150 108l8 2q29 -40 37 -59q-65 -97 -116 -141t-105 -44q-17 0 -31.5 2t-40.5 10.5t-35 11.5t-51 19q-91 39 -137 39q-68 0 -152 -90l-8 -2
q-19 16 -43 53z" />
    <glyph glyph-name="itilde" unicode="&#x129;" horiz-adv-x="618" 
d="M45 45q0 29 14 78l21 70l127 425q10 41 20 66q25 92 25 94q0 15 -12 15q-26 0 -86 -44t-123 -114q-9 35 -6 82l4 14q86 95 172.5 150t154.5 55q35 0 55.5 -20.5t20.5 -51.5q0 -47 -45 -186l-145 -471q-21 -61 -21 -76q0 -10 3 -13t14 -3q26 0 89 50t128 126l12 -4
q-11 -64 -31 -121q-74 -87 -155 -140t-146 -53q-38 0 -64 20.5t-26 51.5zM78 1174q131 165 239 165q55 0 150 -36q84 -35 129 -35q58 0 137 110l8 2q29 -40 37 -59q-56 -88 -109.5 -136t-97.5 -48q-55 0 -155 41q-91 34 -135 34q-68 0 -152 -90l-8 -2q-18 15 -43 54z" />
    <glyph glyph-name="Imacron" unicode="&#x12a;" horiz-adv-x="718" 
d="M-10 68l10 6q55 8 121 30q27 9 33 39l206 1008q15 71 15 96q0 19 -9.5 29t-33.5 16q-79 18 -111 23q3 44 19 76l6 4q117 -9 248 -9q133 0 247 9q-3 -38 -20 -78l-6 -6q-31 -5 -125 -29q-27 -6 -33 -39l-207 -1007q-14 -66 -14 -97q0 -19 9.5 -29t33.5 -16q61 -15 110 -22
q-3 -49 -18 -76l-6 -4q-104 8 -248 8q-147 0 -248 -8q2 33 21 76zM285 1696l10 6h524q-3 -53 -22 -105l-11 -6h-526q6 58 25 105z" />
    <glyph glyph-name="imacron" unicode="&#x12b;" horiz-adv-x="618" 
d="M45 45q0 29 14 78l21 70l127 425q10 41 20 66q25 92 25 94q0 15 -12 15q-26 0 -86 -44t-123 -114q-9 35 -6 82l4 14q86 95 172.5 150t154.5 55q35 0 55.5 -20.5t20.5 -51.5q0 -47 -45 -186l-145 -471q-21 -61 -21 -76q0 -10 3 -13t14 -3q26 0 89 50t128 126l12 -4
q-11 -64 -31 -121q-74 -87 -155 -140t-146 -53q-38 0 -64 20.5t-26 51.5zM172 1276l10 6h525q-3 -54 -23 -104l-12 -7h-529q16 73 29 105z" />
    <glyph glyph-name="Ibreve" unicode="&#x12c;" horiz-adv-x="718" 
d="M-10 68l10 6q55 8 121 30q27 9 33 39l206 1008q15 71 15 96q0 19 -9.5 29t-33.5 16q-79 18 -111 23q3 44 19 76l6 4q117 -9 248 -9q133 0 247 9q-3 -38 -20 -78l-6 -6q-31 -5 -125 -29q-27 -6 -33 -39l-207 -1007q-14 -66 -14 -97q0 -19 9.5 -29t33.5 -16q61 -15 110 -22
q-3 -49 -18 -76l-6 -4q-104 8 -248 8q-147 0 -248 -8q2 33 21 76zM266 1798l4 10q21 21 64 33q31 -83 86.5 -129.5t126.5 -46.5q145 0 268 176l10 6q30 -30 41 -71q-57 -105 -145.5 -171.5t-188.5 -66.5q-102 0 -172 70t-94 190z" />
    <glyph glyph-name="ibreve" unicode="&#x12d;" horiz-adv-x="618" 
d="M45 45q0 29 14 78l21 70l127 425q10 41 20 66q25 92 25 94q0 15 -12 15q-26 0 -86 -44t-123 -114q-9 35 -6 82l4 14q86 95 172.5 150t154.5 55q35 0 55.5 -20.5t20.5 -51.5q0 -47 -45 -186l-145 -471q-21 -61 -21 -76q0 -10 3 -13t14 -3q26 0 89 50t128 126l12 -4
q-11 -64 -31 -121q-74 -87 -155 -140t-146 -53q-38 0 -64 20.5t-26 51.5zM135 1370l4 10q24 24 58 33q19 -89 71.5 -146t122.5 -57q78 0 157.5 57t129.5 146l10 6q19 -22 35 -71q-46 -108 -143 -183q-95 -71 -199 -71q-101 0 -164.5 73t-81.5 203z" />
    <glyph glyph-name="Iogonek" unicode="&#x12e;" horiz-adv-x="718" 
d="M-10 68l10 6q55 8 121 30q27 9 33 39l206 1008q15 71 15 96q0 19 -9.5 29t-33.5 16q-79 18 -111 23q3 44 19 76l6 4q117 -9 248 -9q133 0 247 9q-3 -38 -20 -78l-6 -6q-31 -5 -125 -29q-27 -6 -33 -39l-207 -1007q-14 -66 -14 -97q0 -19 9.5 -29t33.5 -16q61 -15 110 -22
q-3 -49 -18 -76l-6 -4q-104 8 -248 8q-147 0 -248 -8q2 33 21 76zM-66 -385q0 112 123 235q131 128 291 213h10l66 -32q-154 -90 -240 -179t-86 -190q0 -44 21.5 -71t58.5 -27q65 0 144 55l12 -2q0 -43 -10 -76q-101 -82 -224 -82q-75 0 -120.5 42t-45.5 114z" />
    <glyph glyph-name="iogonek" unicode="&#x12f;" horiz-adv-x="618" 
d="M322 1270q0 50 34.5 88.5t83.5 38.5q36 0 60 -24t24 -66q0 -50 -34.5 -89.5t-81.5 -39.5q-37 0 -61.5 24.5t-24.5 67.5zM-88 -383q0 79 59 159t201 193v8q-32 -4 -37 -4q-38 0 -64 20.5t-26 51.5q0 29 14 78l21 70l127 425q10 41 20 66q25 92 25 94q0 15 -12 15
q-26 0 -86 -44t-123 -114q-9 35 -6 82l4 14q86 95 172.5 150t154.5 55q35 0 55.5 -20.5t20.5 -51.5q0 -47 -45 -186l-145 -471q-21 -61 -21 -76q0 -10 3 -13t14 -3q26 0 89 50t128 126l12 -4q-11 -64 -31 -121l-57 -60q-185 -178 -242 -260.5t-61 -185.5q0 -44 23 -70
t61 -26q60 0 139 55l12 -2q0 -43 -10 -76q-101 -82 -207 -82q-83 0 -132.5 45t-49.5 113z" />
    <glyph glyph-name="Idot" unicode="&#x130;" horiz-adv-x="718" 
d="M-10 68l10 6q55 8 121 30q27 9 33 39l206 1008q15 71 15 96q0 19 -9.5 29t-33.5 16q-79 18 -111 23q3 44 19 76l6 4q117 -9 248 -9q133 0 247 9q-3 -38 -20 -78l-6 -6q-31 -5 -125 -29q-27 -6 -33 -39l-207 -1007q-14 -66 -14 -97q0 -19 9.5 -29t33.5 -16q61 -15 110 -22
q-3 -49 -18 -76l-6 -4q-104 8 -248 8q-147 0 -248 -8q2 33 21 76zM430 1645q0 51 37.5 86.5t91.5 35.5q42 0 73.5 -30.5t31.5 -71.5q0 -55 -35.5 -91t-89.5 -36q-43 0 -76 32t-33 75z" />
    <glyph glyph-name="dotlessi" unicode="&#x131;" horiz-adv-x="618" 
d="M45 45q0 29 14 78l21 70l127 425q10 41 20 66q25 92 25 94q0 15 -12 15q-26 0 -86 -44t-123 -114q-9 35 -6 82l4 14q86 95 172.5 150t154.5 55q35 0 55.5 -20.5t20.5 -51.5q0 -47 -45 -186l-145 -471q-21 -61 -21 -76q0 -10 3 -13t14 -3q26 0 89 50t128 126l12 -4
q-11 -64 -31 -121q-74 -87 -155 -140t-146 -53q-38 0 -64 20.5t-26 51.5z" />
    <glyph glyph-name="IJ" unicode="&#x132;" horiz-adv-x="1372" 
d="M-10 68l10 6q55 8 121 30q27 9 33 39l206 1008q15 71 15 96q0 19 -9.5 29t-33.5 16q-79 18 -111 23q3 44 19 76l6 4q117 -9 248 -9q133 0 247 9q-3 -38 -20 -78l-6 -6q-31 -5 -125 -29q-27 -6 -33 -39l-207 -1007q-14 -66 -14 -97q0 -19 9.5 -29t33.5 -16q61 -15 110 -22
q-3 -49 -18 -76l-6 -4q-104 8 -248 8q-147 0 -248 -8q2 33 21 76zM424 -338l8 8q115 25 190.5 80.5t129.5 155.5q59 118 108 350l187 895q14 66 14 96q0 33 -43 45q-80 19 -123 23q6 52 18 76l7 4q117 -9 260 -9q138 0 252 9q-2 -33 -21 -76l-10 -6l-125 -31q-27 -9 -33 -39
l-207 -993q-54 -267 -159 -410q-136 -194 -400 -241q-27 15 -53 63z" />
    <glyph glyph-name="ij" unicode="&#x133;" horiz-adv-x="1140" 
d="M322 1270q0 50 34.5 88.5t83.5 38.5q36 0 60 -24t24 -66q0 -50 -34.5 -89.5t-81.5 -39.5q-37 0 -61.5 24.5t-24.5 67.5zM45 45q0 29 14 78l21 70l127 425q10 41 20 66q25 92 25 94q0 15 -12 15q-26 0 -86 -44t-123 -114q-9 35 -6 82l4 14q86 95 172.5 150t154.5 55
q35 0 55.5 -20.5t20.5 -51.5q0 -47 -45 -186l-145 -471q-21 -61 -21 -76q0 -10 3 -13t14 -3q26 0 89 50t128 126l12 -4q-11 -64 -31 -121q-74 -87 -155 -140t-146 -53q-38 0 -64 20.5t-26 51.5zM870 1270q0 51 36 89t83 38q36 0 60 -24t24 -64q0 -51 -35 -90t-82 -39
q-37 0 -61.5 24.5t-24.5 65.5zM188 -508l9 10q84 -1 155.5 23t116.5 69q67 64 111 189q38 109 100 377l100 446q29 145 29 170q0 17 -12 17q-27 0 -88 -44.5t-125 -113.5q-9 35 -6 82l4 14q86 95 172.5 150t154.5 55q34 0 55 -20t21 -48q0 -33 -27 -153l-4 -17l-12 -51
l-113 -495q-48 -207 -85 -321t-93 -198q-126 -193 -401 -208q-42 28 -62 67z" />
    <glyph glyph-name="Jcircumflex" unicode="&#x134;" horiz-adv-x="675" 
d="M-272 -338l8 8q115 25 190 80.5t129 155.5q61 121 109 350l186 895q15 71 15 96q0 33 -43 45q-80 19 -123 23q6 52 18 76l6 4q117 -9 260 -9q138 0 252 9q-3 -36 -20 -76l-10 -6l-125 -31q-27 -9 -33 -39l-207 -993q-53 -265 -160 -410q-136 -194 -399 -241
q-27 15 -53 63zM193 1563l2 10l309 262h119l12 -6l203 -277q-16 -29 -62 -47h-12l-205 183h-20l-301 -185q-38 25 -45 60z" />
    <glyph glyph-name="jcircumflex" unicode="&#x135;" horiz-adv-x="546" 
d="M-406 -508l9 10q84 -1 155.5 23t116.5 69q67 64 111 189q38 109 100 377l100 446q29 145 29 170q0 17 -12 17q-27 0 -88 -44.5t-125 -113.5q-9 35 -6 82l4 14q86 95 172.5 150t154.5 55q34 0 55 -20t21 -48q0 -37 -26 -153q-3 -10 -17 -68l-112 -495
q-48 -205 -85.5 -319.5t-93.5 -199.5q-126 -193 -401 -208q-42 28 -62 67zM78 1110l-2 12l291 344h108l12 -10l117 -354q-25 -29 -72 -29l-10 6l-116 226h-21l-252 -238q-17 1 -32 13.5t-23 29.5z" />
    <glyph glyph-name="Kcommaaccent" unicode="&#x136;" horiz-adv-x="1396" 
d="M-10 68l10 6q82 15 121 30q27 9 33 39l206 1008q15 71 15 96q0 19 -9.5 29t-33.5 16q-79 18 -111 23q3 38 19 76l6 4q117 -9 248 -9q133 0 247 9q-3 -36 -20 -76l-10 -6q-62 -14 -121 -31q-27 -9 -33 -39l-207 -1007q-14 -66 -14 -97q0 -19 9.5 -29t33.5 -16
q63 -14 110 -22q-9 -58 -18 -76l-6 -4q-104 8 -248 8q-147 0 -248 -8q2 33 21 76zM1094 -2l-93 -2q-69 0 -122 96l-142 256q-79 147 -147 258q-42 68 -82 94l6 29q103 59 168 121l387 356q33 33 33 54q0 12 -6 19t-23 11l-110 25q3 39 20 74l12 6q105 -9 238 -9q139 0 250 9
q0 -35 -15 -76l-6 -6l-73 -21q-73 -23 -138 -80l-526 -467v-10l166 -291l166 -284q36 -58 73 -66q51 -15 109 -24q-10 -45 -20 -70l-13 -6q-94 4 -112 4zM412 -559l4 10q96 20 156.5 63t60.5 101q0 65 -94 102q-25 9 -25 33q0 42 38.5 72.5t92.5 30.5q51 0 91 -41.5
t40 -102.5q0 -117 -79.5 -201t-221.5 -116q-39 22 -63 49z" />
    <glyph glyph-name="kcommaaccent" unicode="&#x137;" horiz-adv-x="1046" 
d="M520 57q-36 60 -147 287q-10 23 -45 23q5 34 30 69l11 8q211 72 299 148t88 178q0 74 -56 74q-39 3 -109.5 -56t-147.5 -155t-155.5 -229.5t-129.5 -266.5l-58 -145l-14 -8q-6 -2 -29 -2q-58 0 -80 36q76 268 170 652l138 555q24 102 24 127q0 19 -24 22q-77 12 -111 15
q8 36 21 59l6 6q169 29 276 41l31 -18l-94 -387q-72 -296 -199 -662h14q274 508 525 508q82 0 126 -42t44 -108q0 -113 -104 -206t-302 -156v-8q68 -140 139 -269q15 -24 33 -24q23 0 81 62.5t118 152.5l14 -4q7 -57 4 -94q-62 -106 -137 -183q-81 -84 -143 -84
q-36 0 -58 19t-49 65zM133 -559l4 10q96 20 156.5 63t60.5 101q0 65 -94 102q-24 9 -24 33q0 42 38.5 72.5t92.5 30.5q51 0 91 -41.5t40 -102.5q0 -117 -79.5 -201t-221.5 -116q-41 23 -64 49z" />
    <glyph glyph-name="kgreenlandic" unicode="&#x138;" horiz-adv-x="1103" 
d="M578 57q-42 69 -148 287q-10 23 -45 23q5 32 31 69l10 8q211 72 299 148t88 178q0 74 -55 74q-38 4 -110.5 -57.5t-151 -159.5t-156.5 -231t-125 -259l-57 -145l-15 -8q-6 -2 -28 -2q-58 0 -80 36l139 496l16 57l31 115q23 84 23 90q0 23 -15 23q-33 0 -99 -52t-120 -126
q-10 47 -8 86l4 14q69 96 158 155.5t164 59.5q35 0 55 -15.5t20 -41.5q0 -53 -32 -148l-56 -172l-41 -131h15q280 508 522 508q82 0 126 -42t44 -108q0 -113 -104 -206t-302 -156v-8q60 -122 140 -269q15 -24 33 -24q23 0 80.5 62.5t117.5 152.5l15 -4q7 -57 4 -94
q-61 -103 -138 -183q-81 -84 -143 -84q-36 0 -57.5 18.5t-48.5 65.5z" />
    <glyph glyph-name="Lacute" unicode="&#x139;" horiz-adv-x="1230" 
d="M-14 68l10 6l104 24q24 6 34.5 15.5t15.5 27.5q19 104 51 240l73 356l91 447q8 36 8 65q0 19 -9.5 29t-33.5 16q-79 18 -111 23q3 44 19 76l6 4q180 -11 248 -11q65 0 241 11q0 -42 -14 -74l-8 -4q-78 -15 -107 -25q-23 -6 -33 -16t-16 -33q-33 -142 -109 -518l-98 -504
q-12 -67 -12 -90q0 -31 26 -37q28 -4 109 -4h225q85 0 140.5 33.5t99.5 105.5q32 48 100 181l13 8q28 -6 69 -47q-49 -157 -121 -371l-12 -8q-95 6 -301 6h-461q-170 0 -258 -8q2 20 21 76zM360 1571v10l381 246q102 -35 183 -96v-25l-525 -188q-27 15 -39 53z" />
    <glyph glyph-name="lacute" unicode="&#x13a;" horiz-adv-x="600" 
d="M0 57q0 27 12 82l19 70l18 72l176 723q78 326 78 348q0 19 -24 22q-53 9 -111 15q9 39 20 59l7 6q132 21 276 41l31 -18l-289 -1196q-33 -126 -33 -152q0 -25 21 -25q29 0 86 48t155 149l13 -4q-11 -64 -31 -121q-80 -93 -165.5 -148t-156.5 -55q-43 0 -72.5 24t-29.5 60
zM236 1628v10l380 246q102 -35 183 -96v-25l-525 -188q-26 14 -38 53z" />
    <glyph glyph-name="Lcommaaccent" unicode="&#x13b;" horiz-adv-x="1230" 
d="M-14 68l10 6l104 24q24 6 34.5 15.5t15.5 27.5q19 104 51 240l73 356l91 447q8 36 8 65q0 19 -9.5 29t-33.5 16q-79 18 -111 23q3 44 19 76l6 4q180 -11 248 -11q65 0 241 11q0 -42 -14 -74l-8 -4q-78 -15 -107 -25q-23 -6 -33 -16t-16 -33q-33 -142 -109 -518l-98 -504
q-12 -67 -12 -90q0 -31 26 -37q28 -4 109 -4h225q85 0 140.5 33.5t99.5 105.5q32 48 100 181l13 8q28 -6 69 -47q-49 -157 -121 -371l-12 -8q-95 6 -301 6h-461q-170 0 -258 -8q2 20 21 76zM252 -559l4 10q96 20 156.5 63t60.5 101q0 65 -94 102q-25 9 -25 33
q0 42 38.5 72.5t92.5 30.5q51 0 91 -41.5t40 -102.5q0 -117 -79.5 -201t-221.5 -116q-39 22 -63 49z" />
    <glyph glyph-name="lcommaaccent" unicode="&#x13c;" horiz-adv-x="600" 
d="M0 57q0 27 12 82l19 70l18 72l176 723q78 326 78 348q0 19 -24 22q-53 9 -111 15q9 39 20 59l7 6q132 21 276 41l31 -18l-289 -1196q-33 -126 -33 -152q0 -25 21 -25q29 0 86 48t155 149l13 -4q-11 -64 -31 -121q-80 -93 -165.5 -148t-156.5 -55q-43 0 -72.5 24t-29.5 60
zM-82 -559l4 10q96 20 156.5 63t60.5 101q0 65 -94 102q-25 9 -25 33q0 41 39 72t93 31q51 0 91 -41.5t40 -102.5q0 -117 -79.5 -201t-221.5 -116q-41 23 -64 49z" />
    <glyph glyph-name="Lcaron" unicode="&#x13d;" horiz-adv-x="1230" 
d="M-14 68l10 6l104 24q24 6 34.5 15.5t15.5 27.5q19 104 51 240l73 356l91 447q8 36 8 65q0 19 -9.5 29t-33.5 16q-79 18 -111 23q3 44 19 76l6 4q180 -11 248 -11q65 0 241 11q0 -42 -14 -74l-8 -4q-78 -15 -107 -25q-23 -6 -33 -16t-16 -33q-33 -142 -109 -518l-98 -504
q-12 -67 -12 -90q0 -31 26 -37q28 -4 109 -4h225q85 0 140.5 33.5t99.5 105.5q32 48 100 181l13 8q28 -6 69 -47q-49 -157 -121 -371l-12 -8q-95 6 -301 6h-461q-170 0 -258 -8q2 20 21 76zM694 952v11q119 71 161 116t42 111q0 51 -31 115q-16 37 -16 49q0 24 21.5 38.5
t54.5 14.5q58 0 93.5 -30t35.5 -83q0 -110 -78 -207t-221 -172q-38 13 -62 37z" />
    <glyph glyph-name="lcaron" unicode="&#x13e;" horiz-adv-x="600" 
d="M0 57q0 27 12 82l19 70l18 72l176 723q78 326 78 348q0 19 -24 22q-53 9 -111 15q9 39 20 59l7 6q132 21 276 41l31 -18l-289 -1196q-33 -126 -33 -152q0 -25 21 -25q29 0 86 48t155 149l13 -4q-11 -64 -31 -121q-80 -93 -165.5 -148t-156.5 -55q-43 0 -72.5 24t-29.5 60
zM502 1057v10q119 71 161 116t42 111q0 51 -31 115q-17 39 -17 49q0 24 21.5 38.5t54.5 14.5q58 0 93.5 -29.5t35.5 -82.5q0 -110 -78 -207t-221 -172q-37 13 -61 37z" />
    <glyph glyph-name="Ldot" unicode="&#x13f;" horiz-adv-x="1230" 
d="M-14 68l10 6l104 24q24 6 34.5 15.5t15.5 27.5q19 104 51 240l73 356l91 447q8 36 8 65q0 19 -9.5 29t-33.5 16q-79 18 -111 23q3 44 19 76l6 4q180 -11 248 -11q65 0 241 11q0 -42 -14 -74l-8 -4q-78 -15 -107 -25q-23 -6 -33 -16t-16 -33q-33 -142 -109 -518l-98 -504
q-12 -67 -12 -90q0 -31 26 -37q28 -4 109 -4h225q85 0 140.5 33.5t99.5 105.5q32 48 100 181l13 8q28 -6 69 -47q-49 -157 -121 -371l-12 -8q-95 6 -301 6h-461q-170 0 -258 -8q2 20 21 76zM854 774q0 51 37.5 87t91.5 36q41 0 72.5 -30.5t31.5 -71.5q0 -55 -35 -91t-89 -36
q-43 0 -76 32t-33 74z" />
    <glyph glyph-name="ldot" unicode="&#x140;" horiz-adv-x="782" 
d="M0 57q0 27 12 82l19 70l18 72l176 723q78 326 78 348q0 19 -24 22q-53 9 -111 15q9 39 20 59l7 6q132 21 276 41l31 -18l-289 -1196q-33 -126 -33 -152q0 -25 21 -25q29 0 86 48t155 149l13 -4q-11 -64 -31 -121q-80 -93 -165.5 -148t-156.5 -55q-43 0 -72.5 24t-29.5 60
zM522 745q0 51 37.5 87t91.5 36q42 0 73.5 -30.5t31.5 -71.5q0 -55 -35.5 -91t-89.5 -36q-43 0 -76 32t-33 74z" />
    <glyph glyph-name="Lslash" unicode="&#x141;" horiz-adv-x="1230" 
d="M-14 68l10 6l104 24q24 6 34.5 15.5t15.5 27.5l63 301l39 183q-41 -26 -92 -41l-88 -31q-9 30 -9 65q0 21 3 27l6 12l198 60l95 467q8 36 8 65q0 19 -9.5 29t-33.5 16q-79 18 -111 23q3 44 19 76l6 4q180 -11 248 -11q65 0 241 11q0 -42 -14 -74l-8 -4q-78 -15 -107 -25
q-24 -6 -34.5 -16t-14.5 -33l-14 -69q-51 -225 -88 -416q63 31 143 57l278 92q13 -43 9 -90l-6 -12l-443 -141q-33 -160 -86 -443q-12 -67 -12 -92q0 -29 26 -35q28 -4 109 -4h225q85 0 140.5 33.5t99.5 105.5q32 48 100 181l13 8q28 -6 69 -47q-49 -157 -121 -371l-12 -8
q-95 6 -301 6h-461q-170 0 -258 -8q2 20 21 76z" />
    <glyph glyph-name="lslash" unicode="&#x142;" horiz-adv-x="600" 
d="M0 57q0 27 12 82l19 70l18 72l109 440q-41 -25 -92 -47l-78 -35q-19 66 -17 86l6 14l205 86l43 179q78 326 78 348q0 19 -24 22q-53 9 -111 15q9 39 20 59l7 6q132 21 276 41l31 -18l-142 -584q65 35 101 49l121 53q20 -59 20 -82l-6 -12l-260 -113l-123 -507
q-33 -126 -33 -152q0 -25 21 -25q29 0 86 48t155 149l13 -4q-11 -64 -31 -121q-80 -93 -165.5 -148t-156.5 -55q-43 0 -72.5 24t-29.5 60z" />
    <glyph glyph-name="Nacute" unicode="&#x143;" horiz-adv-x="1593" 
d="M948 244l-346 717q-72 145 -123 272h-10q-12 -89 -47 -275l-127 -692q-19 -108 -19 -125q0 -27 25 -35q5 -1 133 -34q-3 -50 -18 -74l-10 -6q-91 8 -203 8q-133 0 -240 -8q3 52 19 78l10 6q28 6 110 33q23 7 33.5 22.5t18.5 52.5l172 879q36 174 36 205q0 13 -4.5 18
t-17.5 10l-111 17q6 41 21 71l8 7q88 -5 182 -5q102 0 166 3q33 -100 111 -267l350 -727l25 -51q21 -49 49 -102h12l125 659q59 316 59 348q0 22 -26 31q-37 11 -133 35q3 50 18 74l10 6q102 -9 203 -9q120 0 240 9q-3 -52 -19 -78l-10 -6q-62 -15 -111 -33q-29 -10 -41 -66
q-48 -212 -102 -469l-104 -489l-54 -244l-20 -12q-39 -8 -125 -8q-46 117 -115 254zM795 1571v10l381 246q100 -35 182 -96v-25l-524 -188q-27 15 -39 53z" />
    <glyph glyph-name="nacute" unicode="&#x144;" horiz-adv-x="1124" 
d="M547 49q0 32 47 178l121 367q53 157 53 197q0 45 -35 45q-48 5 -143 -100.5t-197.5 -270t-177.5 -330.5q-32 -71 -57 -143l-15 -8q-6 -2 -28 -2q-58 0 -80 36l139 496l25 90q45 151 45 172q0 23 -15 23q-33 0 -99 -52t-120 -126q-10 47 -8 86l4 14q69 96 158 155.5
t164 59.5q35 0 55 -15.5t20 -41.5q0 -52 -32 -148l-97 -303h15q149 268 270 389q119 119 244 119t125 -125q0 -61 -54 -229l-126 -377q-19 -62 -19 -74q0 -16 16 -16q27 0 89 50.5t133 133.5l12 -4q-11 -64 -31 -121q-72 -88 -157 -144.5t-156 -56.5q-41 0 -64.5 22
t-23.5 54zM580 1098v12l260 354q99 12 229 9v-23l-432 -391q-40 10 -57 39z" />
    <glyph glyph-name="Ncommaaccent" unicode="&#x145;" horiz-adv-x="1593" 
d="M948 244l-346 717q-72 145 -123 272h-10q-12 -89 -47 -275l-127 -692q-19 -108 -19 -125q0 -27 25 -35q5 -1 133 -34q-3 -50 -18 -74l-10 -6q-91 8 -203 8q-133 0 -240 -8q3 52 19 78l10 6q28 6 110 33q23 7 33.5 22.5t18.5 52.5l172 879q36 174 36 205q0 13 -4.5 18
t-17.5 10l-111 17q6 41 21 71l8 7q88 -5 182 -5q102 0 166 3q33 -100 111 -267l350 -727l25 -51q21 -49 49 -102h12l125 659q59 316 59 348q0 22 -26 31q-37 11 -133 35q3 50 18 74l10 6q102 -9 203 -9q120 0 240 9q-3 -52 -19 -78l-10 -6q-62 -15 -111 -33q-29 -10 -41 -66
q-48 -212 -102 -469l-104 -489l-54 -244l-20 -12q-39 -8 -125 -8q-46 117 -115 254zM467 -559l4 10q96 20 156.5 63t60.5 101q0 65 -94 102q-25 9 -25 33q0 42 38.5 72.5t92.5 30.5q51 0 91 -41.5t40 -102.5q0 -117 -79.5 -201t-221.5 -116q-39 22 -63 49z" />
    <glyph glyph-name="ncommaaccent" unicode="&#x146;" horiz-adv-x="1124" 
d="M547 49q0 32 47 178l121 367q53 157 53 197q0 45 -35 45q-48 5 -143 -100.5t-197.5 -270t-177.5 -330.5q-32 -71 -57 -143l-15 -8q-6 -2 -28 -2q-58 0 -80 36l139 496l25 90q45 151 45 172q0 23 -15 23q-33 0 -99 -52t-120 -126q-10 47 -8 86l4 14q69 96 158 155.5
t164 59.5q35 0 55 -15.5t20 -41.5q0 -52 -32 -148l-97 -303h15q149 268 270 389q119 119 244 119t125 -125q0 -61 -54 -229l-126 -377q-19 -62 -19 -74q0 -16 16 -16q27 0 89 50.5t133 133.5l12 -4q-11 -64 -31 -121q-72 -88 -157 -144.5t-156 -56.5q-41 0 -64.5 22
t-23.5 54zM100 -559l4 10q97 20 157.5 63t60.5 101q0 65 -95 102q-24 9 -24 33q0 42 38.5 72.5t92.5 30.5q51 0 91 -41.5t40 -102.5q0 -117 -79.5 -201t-221.5 -116q-41 23 -64 49z" />
    <glyph glyph-name="Ncaron" unicode="&#x147;" horiz-adv-x="1593" 
d="M948 244l-346 717q-72 145 -123 272h-10q-12 -89 -47 -275l-127 -692q-19 -108 -19 -125q0 -27 25 -35q5 -1 133 -34q-3 -50 -18 -74l-10 -6q-91 8 -203 8q-133 0 -240 -8q3 52 19 78l10 6q28 6 110 33q23 7 33.5 22.5t18.5 52.5l172 879q36 174 36 205q0 13 -4.5 18
t-17.5 10l-111 17q6 41 21 71l8 7q88 -5 182 -5q102 0 166 3q33 -100 111 -267l350 -727l25 -51q21 -49 49 -102h12l125 659q59 316 59 348q0 22 -26 31q-37 11 -133 35q3 50 18 74l10 6q102 -9 203 -9q120 0 240 9q-3 -52 -19 -78l-10 -6q-62 -15 -111 -33q-29 -10 -41 -66
q-48 -212 -102 -469l-104 -489l-54 -244l-20 -12q-39 -8 -125 -8q-46 117 -115 254zM909 1550l-12 6l-192 267q16 28 55 43h12l203 -180h20l303 182q28 -22 37 -56l-2 -10l-305 -252h-119z" />
    <glyph glyph-name="ncaron" unicode="&#x148;" horiz-adv-x="1124" 
d="M547 49q0 32 47 178l121 367q53 157 53 197q0 45 -35 45q-48 5 -143 -100.5t-197.5 -270t-177.5 -330.5q-32 -71 -57 -143l-15 -8q-6 -2 -28 -2q-58 0 -80 36l139 496l25 90q45 151 45 172q0 23 -15 23q-33 0 -99 -52t-120 -126q-10 47 -8 86l4 14q69 96 158 155.5
t164 59.5q35 0 55 -15.5t20 -41.5q0 -52 -32 -148l-97 -303h15q149 268 270 389q119 119 244 119t125 -125q0 -61 -54 -229l-126 -377q-19 -62 -19 -74q0 -16 16 -16q27 0 89 50.5t133 133.5l12 -4q-11 -64 -31 -121q-72 -88 -157 -144.5t-156 -56.5q-41 0 -64.5 22
t-23.5 54zM600 1092l-12 10l-123 346q17 20 72 29l10 -7l115 -219h20l248 230q34 -3 57 -39l2 -12l-297 -338h-92z" />
    <glyph glyph-name="napostrophe" unicode="&#x149;" horiz-adv-x="1124" 
d="M547 49q0 32 47 178l121 367q53 157 53 197q0 45 -35 45q-48 5 -143 -100.5t-197.5 -270t-177.5 -330.5q-32 -71 -57 -143l-15 -8q-6 -2 -28 -2q-58 0 -80 36l139 496l25 90q45 151 45 172q0 23 -15 23q-33 0 -99 -52t-120 -126q-10 47 -8 86l4 14q69 96 158 155.5
t164 59.5q35 0 55 -15.5t20 -41.5q0 -52 -32 -148l-97 -303h15q149 268 270 389q119 119 244 119t125 -125q0 -61 -54 -229l-126 -377q-19 -62 -19 -74q0 -16 16 -16q27 0 89 50.5t133 133.5l12 -4q-11 -64 -31 -121q-72 -88 -157 -144.5t-156 -56.5q-41 0 -64.5 22
t-23.5 54zM319 1331q0 -131 -89.5 -225.5t-254.5 -132.5q-33 14 -55 51v10q119 25 185.5 77.5t66.5 125.5q0 44 -34 77t-89 40q-41 3 -41 41q0 52 44 83t104 31q71 0 117 -51t46 -127z" />
    <glyph glyph-name="Eng" unicode="&#x14a;" horiz-adv-x="1593" 
d="M705 -225l12 8q105 -41 184 -41q86 0 136 42t50 114q0 47 -20 94q-12 32 -72 158l-34 69l-359 742q-62 126 -123 272h-10l-47 -275l-127 -692q-19 -108 -19 -125q0 -27 25 -35q5 -1 133 -34q-3 -50 -18 -74l-10 -6q-91 8 -203 8q-133 0 -240 -8q3 52 19 78l10 6
q81 21 110 33q40 15 52 75l172 879q36 177 36 205q0 13 -4.5 18t-17.5 10q-43 7 -111 17q6 41 21 71l8 7q88 -5 182 -5q102 0 166 3q21 -65 49 -132q37 -88 68 -149l344 -713l25 -51q21 -49 49 -102h12l125 659l22 117q37 197 37 227q0 18 -4.5 24.5t-21.5 10.5
q-37 11 -133 35q3 50 18 74l10 6q102 -9 203 -9q120 0 240 9q-3 -52 -19 -78l-10 -6q-84 -22 -111 -33q-29 -13 -41 -66l-79 -356q-40 -178 -80 -383q-87 -425 -146 -641q-35 -123 -102.5 -187.5t-155.5 -64.5q-90 0 -136.5 45.5t-63.5 149.5z" />
    <glyph glyph-name="eng" unicode="&#x14b;" horiz-adv-x="1073" 
d="M35 18l139 496l25 90q45 151 45 172q0 23 -15 23q-33 0 -99 -52t-120 -126q-10 47 -8 86l4 14q69 96 158 155.5t164 59.5q35 0 55 -15.5t20 -41.5q0 -52 -32 -148l-97 -303h15q149 268 270 389q119 119 244 119t125 -125q0 -87 -43 -229q-92 -303 -170 -529
q-116 -333 -275 -506q-116 -122 -266 -122q-62 0 -87.5 45.5t-25.5 146.5l19 10q119 -84 194 -84q58 0 91 33q48 42 84 129q28 65 86 240l32 102q89 269 168 565q33 121 33 179q0 45 -35 45q-48 5 -143 -100.5t-197.5 -270t-177.5 -330.5q-32 -71 -57 -143l-15 -8
q-6 -2 -28 -2q-58 0 -80 36z" />
    <glyph glyph-name="Omacron" unicode="&#x14c;" horiz-adv-x="1527" 
d="M104 547q-2 132 33.5 261t105.5 238.5t165 193t220.5 129.5t264.5 44q114 0 210 -34.5t167.5 -100.5t112 -171t40.5 -239q2 -129 -31 -259t-99.5 -245.5t-157 -204.5t-213.5 -139t-260 -47q-281 0 -420 160q-138 163 -138 414zM1243 889q0 215 -96 325.5t-262 110.5
q-138 4 -254.5 -68.5t-190.5 -190t-114.5 -260.5t-38.5 -286q0 -194 94 -325q96 -134 287 -134q182 0 313 134q133 133 197 325q65 195 65 369zM723 1696l10 6h524q-3 -53 -22 -105l-10 -6h-527q6 58 25 105z" />
    <glyph glyph-name="omacron" unicode="&#x14d;" horiz-adv-x="929" 
d="M-16 279q0 154 77 321q68 146 191 240q125 96 266 96q127 0 200 -77.5t73 -211.5q0 -139 -58 -285q-59 -145 -160 -249q-60 -63 -142 -101.5t-157 -38.5q-142 0 -216 79.5t-74 226.5zM492 219q57 93 91.5 214t34.5 241q0 96 -28 139t-86 43q-77 0 -153 -79.5t-128 -209.5
q-65 -163 -65 -309q0 -106 29 -155.5t94 -49.5q108 0 211 166zM362 1276l11 6h524q-3 -54 -23 -104l-12 -7h-528q18 79 28 105z" />
    <glyph glyph-name="Obreve" unicode="&#x14e;" horiz-adv-x="1527" 
d="M104 547q-2 132 33.5 261t105.5 238.5t165 193t220.5 129.5t264.5 44q114 0 210 -34.5t167.5 -100.5t112 -171t40.5 -239q2 -129 -31 -259t-99.5 -245.5t-157 -204.5t-213.5 -139t-260 -47q-281 0 -420 160q-138 163 -138 414zM1243 889q0 215 -96 325.5t-262 110.5
q-138 4 -254.5 -68.5t-190.5 -190t-114.5 -260.5t-38.5 -286q0 -194 94 -325q96 -134 287 -134q182 0 313 134q133 133 197 325q65 195 65 369zM705 1798l4 10q22 22 63 33q31 -83 86.5 -129.5t126.5 -46.5q145 0 268 176l11 6q30 -30 41 -71q-57 -105 -145.5 -171.5
t-188.5 -66.5q-102 0 -172 70t-94 190z" />
    <glyph glyph-name="obreve" unicode="&#x14f;" horiz-adv-x="929" 
d="M-16 279q0 154 77 321q68 146 191 240q125 96 266 96q127 0 200 -77.5t73 -211.5q0 -139 -58 -285q-59 -145 -160 -249q-60 -63 -142 -101.5t-157 -38.5q-142 0 -216 79.5t-74 226.5zM492 219q57 93 91.5 214t34.5 241q0 96 -28 139t-86 43q-77 0 -153 -79.5t-128 -209.5
q-65 -163 -65 -309q0 -106 29 -155.5t94 -49.5q108 0 211 166zM326 1370l4 10q25 25 57 33q19 -89 72 -146t123 -57q78 0 157 57t129 146l11 6q18 -20 34 -71q-46 -108 -143 -183q-95 -71 -199 -71q-101 0 -164 73t-81 203z" />
    <glyph glyph-name="Ohungarumlaut" unicode="&#x150;" horiz-adv-x="1527" 
d="M104 547q-2 132 33.5 261t105.5 238.5t165 193t220.5 129.5t264.5 44q114 0 210 -34.5t167.5 -100.5t112 -171t40.5 -239q2 -129 -31 -259t-99.5 -245.5t-157 -204.5t-213.5 -139t-260 -47q-281 0 -420 160q-138 163 -138 414zM1243 889q0 215 -96 325.5t-262 110.5
q-138 4 -254.5 -68.5t-190.5 -190t-114.5 -260.5t-38.5 -286q0 -194 94 -325q96 -134 287 -134q182 0 313 134q133 133 197 325q65 195 65 369zM682 1550v11l223 264q52 8 142 8l61 -2v-16l-363 -295q-17 2 -36.5 11t-26.5 19zM1049 1550v11l223 264q52 8 141 8l62 -2v-16
l-363 -295q-17 2 -36.5 11t-26.5 19z" />
    <glyph glyph-name="ohungarumlaut" unicode="&#x151;" horiz-adv-x="929" 
d="M-16 279q0 154 77 321q68 146 191 240q125 96 266 96q127 0 200 -77.5t73 -211.5q0 -139 -58 -285q-59 -145 -160 -249q-60 -63 -142 -101.5t-157 -38.5q-142 0 -216 79.5t-74 226.5zM492 219q57 93 91.5 214t34.5 241q0 96 -28 139t-86 43q-77 0 -153 -79.5t-128 -209.5
q-65 -163 -65 -309q0 -106 29 -155.5t94 -49.5q108 0 211 166zM342 1073v12l205 377q104 11 203 11v-15l-344 -416q-15 2 -36 11.5t-28 19.5zM709 1073v12l204 377q105 11 199 11v-15l-344 -416q-14 2 -33 11.5t-26 19.5z" />
    <glyph glyph-name="OE" unicode="&#x152;" horiz-adv-x="2093" 
d="M106 567q-2 170 60 325t173.5 271.5t277 184.5t356.5 65q95 0 215 -14q162 -13 213 -13h192q333 0 469 13l11 -8q-24 -196 -52 -371l-8 -10q-25 -7 -84 -4q0 127 -2 147q-5 83 -21 108t-69 29q-73 6 -180 6q-47 0 -207 -4q-42 0 -51 -45l-101 -499q70 4 99 4h116
q75 0 99 53q25 48 55 119l6 4q6 2 29 2q22 0 55 -10q-57 -235 -69 -455l-9 -6q-33 -7 -80 -4q-3 62 -18 133q-8 39 -25 54t-53 15h-225l-57 -280l-11 -55q-26 -118 -26 -164q0 -34 21.5 -49t66.5 -15h299q93 0 141.5 27t85.5 90q42 75 78 172l12 8q38 -8 68 -35
q-38 -193 -88 -354l-15 -8l-73 2q-168 4 -236 4h-465q-51 0 -153 -12q-138 -15 -207 -15q-319 0 -465 162q-148 165 -148 432zM950 84q36 13 45 57l207 992q23 125 23 127q0 16 -7.5 22.5t-27.5 13.5q-113 29 -223 29q-155 3 -286 -64t-215.5 -178t-131.5 -250.5t-45 -285.5
q0 -138 52.5 -249.5t153.5 -177t234 -65.5q132 0 221 29z" />
    <glyph glyph-name="oe" unicode="&#x153;" horiz-adv-x="1380" 
d="M-16 279q0 154 77 321q65 145 189 240q125 96 268 96q98 0 156.5 -61.5t60.5 -157.5h8q88 103 191.5 161t202.5 58q79 0 126.5 -39.5t47.5 -101.5q0 -135 -164 -230q-165 -95 -399 -153q-15 -58 -15 -131q0 -199 125 -199q135 0 285 180l12 -4q-10 -58 -35 -123
q-59 -70 -145.5 -116t-169.5 -46q-109 0 -169 53t-61 152h-6q-51 -93 -131 -149t-172 -56q-134 0 -208 81.5t-74 224.5zM1151 805q0 59 -53 59q-85 0 -186 -115t-146 -268q385 138 385 324zM492 219q57 93 91.5 214t34.5 241q0 96 -28 139t-86 43q-77 0 -153 -79.5
t-128 -209.5q-65 -163 -65 -309q0 -106 29 -155.5t94 -49.5q109 0 211 166z" />
    <glyph glyph-name="Racute" unicode="&#x154;" horiz-adv-x="1288" 
d="M-12 63l10 7q24 6 67 18t50 14q19 6 27 14t12 25l47 230l73 362q105 504 105 531q0 18 -27 24q-54 12 -121 21q6 41 21 75l10 7q190 -5 211 -5q15 0 35.5 1t51 2t52.5 2l111 2q195 0 317 -70q150 -89 150 -274q0 -159 -115 -277q-114 -114 -299 -141v-10l101 -234
q72 -166 108 -237q14 -27 28.5 -39t43.5 -19q47 -15 104 -24q-5 -29 -22 -68l-13 -6q-25 2 -98 2h-100q-36 0 -56 15.5t-38 54.5l-107 247l-104 244q-12 31 -29 44t-49 13q-43 0 -121 4l-84 -415q-14 -66 -14 -78q0 -22 18 -25q60 -15 129 -28q-6 -45 -22 -74l-9 -6
q-107 8 -243 8q-123 0 -230 -8q3 42 19 71zM891 793q115 85 115 239q0 131 -82 201q-84 72 -224 72q-54 0 -100 -9q-21 -5 -29 -12t-14 -29q-32 -141 -49 -229l-64 -305q59 -12 168 -12q169 0 279 84zM625 1571v10l381 246q100 -35 182 -96v-25l-524 -188q-27 15 -39 53z
" />
    <glyph glyph-name="racute" unicode="&#x155;" horiz-adv-x="827" 
d="M57 18l66 275q61 277 70 325q26 127 26 158q0 10 -6 17.5t-14 7.5q-26 0 -72 -45t-96 -119q-16 39 -13 88l5 14q56 85 126.5 141t129.5 56q40 0 63 -23t23 -61q0 -52 -66 -295l-61 -223h20q156 343 250 469.5t201 132.5q49 0 77.5 -27t28.5 -80q0 -91 -84 -192h-29
q-14 87 -28.5 119t-40.5 32q-45 0 -127 -133t-223 -436q-46 -95 -103 -227l-14 -8q-6 -2 -29 -2q-58 0 -80 36zM436 1098v12l260 354q99 12 230 9v-23l-432 -391q-18 4 -35 16t-23 23z" />
    <glyph glyph-name="Rcommaaccent" unicode="&#x156;" horiz-adv-x="1288" 
d="M-12 63l10 7q24 6 67 18t50 14q19 6 27 14t12 25l47 230l73 362q105 504 105 531q0 18 -27 24q-54 12 -121 21q6 41 21 75l10 7q190 -5 211 -5q15 0 35.5 1t51 2t52.5 2l111 2q195 0 317 -70q150 -89 150 -274q0 -159 -115 -277q-114 -114 -299 -141v-10l101 -234
q72 -166 108 -237q14 -27 28.5 -39t43.5 -19q47 -15 104 -24q-5 -29 -22 -68l-13 -6q-25 2 -98 2h-100q-36 0 -56 15.5t-38 54.5l-107 247l-104 244q-12 31 -29 44t-49 13q-43 0 -121 4l-84 -415q-14 -66 -14 -78q0 -22 18 -25q60 -15 129 -28q-6 -45 -22 -74l-9 -6
q-107 8 -243 8q-123 0 -230 -8q3 42 19 71zM891 793q115 85 115 239q0 131 -82 201q-84 72 -224 72q-54 0 -100 -9q-21 -5 -29 -12t-14 -29q-32 -141 -49 -229l-64 -305q59 -12 168 -12q169 0 279 84zM367 -559l4 10q96 20 156.5 63t60.5 101q0 65 -94 102q-25 9 -25 33
q0 42 38.5 72.5t92.5 30.5q51 0 91 -41.5t40 -102.5q0 -117 -79.5 -201t-221.5 -116q-39 22 -63 49z" />
    <glyph glyph-name="rcommaaccent" unicode="&#x157;" horiz-adv-x="827" 
d="M57 18l66 275q61 277 70 325q26 127 26 158q0 10 -6 17.5t-14 7.5q-26 0 -72 -45t-96 -119q-16 39 -13 88l5 14q56 85 126.5 141t129.5 56q40 0 63 -23t23 -61q0 -52 -66 -295l-61 -223h20q156 343 250 469.5t201 132.5q49 0 77.5 -27t28.5 -80q0 -91 -84 -192h-29
q-14 87 -28.5 119t-40.5 32q-45 0 -127 -133t-223 -436q-46 -95 -103 -227l-14 -8q-6 -2 -29 -2q-58 0 -80 36zM-162 -559l4 10q96 20 156.5 63t60.5 101q0 65 -94 102q-24 9 -24 33q0 42 38.5 72.5t92.5 30.5q51 0 91 -41.5t40 -102.5q0 -117 -79.5 -201t-221.5 -116
q-41 23 -64 49z" />
    <glyph glyph-name="Rcaron" unicode="&#x158;" horiz-adv-x="1288" 
d="M-12 63l10 7q24 6 67 18t50 14q19 6 27 14t12 25l47 230l73 362q105 504 105 531q0 18 -27 24q-54 12 -121 21q6 41 21 75l10 7q190 -5 211 -5q15 0 35.5 1t51 2t52.5 2l111 2q195 0 317 -70q150 -89 150 -274q0 -159 -115 -277q-114 -114 -299 -141v-10l101 -234
q72 -166 108 -237q14 -27 28.5 -39t43.5 -19q47 -15 104 -24q-5 -29 -22 -68l-13 -6q-25 2 -98 2h-100q-36 0 -56 15.5t-38 54.5l-107 247l-104 244q-12 31 -29 44t-49 13q-43 0 -121 4l-84 -415q-14 -66 -14 -78q0 -22 18 -25q60 -15 129 -28q-6 -45 -22 -74l-9 -6
q-107 8 -243 8q-123 0 -230 -8q3 42 19 71zM891 793q115 85 115 239q0 131 -82 201q-84 72 -224 72q-54 0 -100 -9q-21 -5 -29 -12t-14 -29q-32 -141 -49 -229l-64 -305q59 -12 168 -12q169 0 279 84zM739 1550l-12 6l-192 267q16 28 55 43h12l203 -180h20l303 182
q28 -22 37 -56l-2 -10l-305 -252h-119z" />
    <glyph glyph-name="rcaron" unicode="&#x159;" horiz-adv-x="827" 
d="M57 18l66 275q61 277 70 325q26 127 26 158q0 10 -6 17.5t-14 7.5q-26 0 -72 -45t-96 -119q-16 39 -13 88l5 14q56 85 126.5 141t129.5 56q40 0 63 -23t23 -61q0 -52 -66 -295l-61 -223h20q156 343 250 469.5t201 132.5q49 0 77.5 -27t28.5 -80q0 -91 -84 -192h-29
q-14 87 -28.5 119t-40.5 32q-45 0 -127 -133t-223 -436q-46 -95 -103 -227l-14 -8q-6 -2 -29 -2q-58 0 -80 36zM457 1092l-13 10l-122 346q17 20 71 29l10 -7l115 -219h21l247 230q16 -1 33 -13.5t25 -25.5l2 -12l-297 -338h-92z" />
    <glyph glyph-name="Sacute" unicode="&#x15a;" horiz-adv-x="1052" 
d="M293 -8l-103 22q-68 15 -133 15l-12 16q-19 150 -35 377l10 12q36 19 70 27q39 -144 70 -207q44 -97 120.5 -142.5t194.5 -45.5q119 0 192.5 74t73.5 192q0 95 -53 163.5t-188 157.5q-158 107 -228 191q-69 87 -69 211q0 157 127 257.5t319 100.5q75 0 201 -27
q94 -20 137 -20l27 2l12 -12q-11 -144 -41 -328l-12 -14q-32 -11 -78 -8q0 48 -4 106q-7 103 -70 156t-174 53q-126 0 -202 -67t-76 -171q0 -65 26 -110q28 -46 73 -84.5t142 -102.5q162 -109 224 -194q67 -88 67 -213q0 -178 -125 -292t-313 -114q-83 0 -170 19zM532 1571
v10l381 246q102 -35 183 -96v-25l-525 -188q-27 15 -39 53z" />
    <glyph glyph-name="sacute" unicode="&#x15b;" horiz-adv-x="653" 
d="M-84 57q0 59 53 136h23q82 -119 174 -119q55 0 89 39.5t34 97.5q0 39 -18.5 74t-65.5 96q-61 80 -88 137.5t-27 130.5q0 75 51 142.5t127 106t152 38.5q67 0 108 -24t41 -66q0 -30 -15.5 -64.5t-39.5 -58.5h-22q-89 121 -164 121q-40 0 -66 -33.5t-26 -81.5
q0 -62 24 -112t84 -130q52 -67 74 -111.5t22 -92.5q0 -55 -35.5 -114t-91.5 -103q-122 -93 -247 -93q-68 0 -109 24t-41 60zM360 1098v12l261 354q99 12 229 9v-23l-432 -391q-18 4 -35 16t-23 23z" />
    <glyph glyph-name="Scircumflex" unicode="&#x15c;" horiz-adv-x="1052" 
d="M293 -8l-103 22q-68 15 -133 15l-12 16q-19 150 -35 377l10 12q36 19 70 27q39 -144 70 -207q44 -97 120.5 -142.5t194.5 -45.5q119 0 192.5 74t73.5 192q0 95 -53 163.5t-188 157.5q-158 107 -228 191q-69 87 -69 211q0 157 127 257.5t319 100.5q75 0 201 -27
q94 -20 137 -20l27 2l12 -12q-11 -144 -41 -328l-12 -14q-32 -11 -78 -8q0 48 -4 106q-7 103 -70 156t-174 53q-126 0 -202 -67t-76 -171q0 -65 26 -110q28 -46 73 -84.5t142 -102.5q162 -109 224 -194q67 -88 67 -213q0 -178 -125 -292t-313 -114q-83 0 -170 19zM381 1563
l2 10l309 262h119l12 -6l203 -277q-17 -30 -61 -47h-13l-204 183h-21l-301 -185q-38 25 -45 60z" />
    <glyph glyph-name="scircumflex" unicode="&#x15d;" horiz-adv-x="653" 
d="M-84 57q0 59 53 136h23q82 -119 174 -119q55 0 89 39.5t34 97.5q0 39 -18.5 74t-65.5 96q-61 80 -88 137.5t-27 130.5q0 75 51 142.5t127 106t152 38.5q67 0 108 -24t41 -66q0 -30 -15.5 -64.5t-39.5 -58.5h-22q-89 121 -164 121q-40 0 -66 -33.5t-26 -81.5
q0 -62 24 -112t84 -130q52 -67 74 -111.5t22 -92.5q0 -55 -35.5 -114t-91.5 -103q-122 -93 -247 -93q-68 0 -109 24t-41 60zM201 1110l-2 12l290 344h109l12 -10l117 -354q-25 -29 -72 -29l-10 6l-117 226h-20l-252 -238q-17 1 -32 13.5t-23 29.5z" />
    <glyph glyph-name="Scedilla" unicode="&#x15e;" horiz-adv-x="1052" 
d="M293 -8l-103 22q-68 15 -133 15l-12 16q-19 150 -35 377l10 12q36 19 70 27q39 -144 70 -207q44 -97 120.5 -142.5t194.5 -45.5q119 0 192.5 74t73.5 192q0 95 -53 163.5t-188 157.5q-158 107 -228 191q-69 87 -69 211q0 157 127 257.5t319 100.5q75 0 201 -27
q94 -20 137 -20l27 2l12 -12q-11 -144 -41 -328l-12 -14q-32 -11 -78 -8q0 48 -4 106q-7 103 -70 156t-174 53q-126 0 -202 -67t-76 -171q0 -65 26 -110q28 -46 73 -84.5t142 -102.5q162 -109 224 -194q67 -88 67 -213q0 -178 -125 -292t-313 -114q-83 0 -170 19zM195 -508
q-15 53 -17 92l10 8q54 -39 93 -56t81 -17q52 0 80.5 24t28.5 64q0 50 -36.5 88t-115.5 74l-4 14l166 258l8 4l56 -27l-105 -161q70 -34 113 -89t43 -120q0 -87 -67 -146t-169 -59q-89 0 -165 49z" />
    <glyph glyph-name="scedilla" unicode="&#x15f;" horiz-adv-x="653" 
d="M-84 57q0 59 53 136h23q82 -119 174 -119q55 0 89 39.5t34 97.5q0 39 -18.5 74t-65.5 96q-61 80 -88 137.5t-27 130.5q0 75 51 142.5t127 106t152 38.5q67 0 108 -24t41 -66q0 -30 -15.5 -64.5t-39.5 -58.5h-22q-89 121 -164 121q-40 0 -66 -33.5t-26 -81.5
q0 -62 24 -112t84 -130q52 -67 74 -111.5t22 -92.5q0 -55 -35.5 -114t-91.5 -103q-122 -93 -247 -93q-68 0 -109 24t-41 60zM-127 -508q-13 48 -16 92l10 8q54 -39 93 -56t81 -17q52 0 80.5 24t28.5 64q0 50 -36.5 88t-115.5 74l-4 14l166 258l8 4l55 -27l-104 -161
q70 -33 112.5 -88.5t42.5 -120.5q0 -87 -66.5 -146t-168.5 -59q-90 0 -166 49z" />
    <glyph glyph-name="Scaron" unicode="&#x160;" horiz-adv-x="1052" 
d="M293 -8l-103 22q-68 15 -133 15l-12 16q-19 150 -35 377l10 12q36 19 70 27q39 -144 70 -207q44 -97 120.5 -142.5t194.5 -45.5q119 0 192.5 74t73.5 192q0 95 -53 163.5t-188 157.5q-158 107 -228 191q-69 87 -69 211q0 157 127 257.5t319 100.5q75 0 201 -27
q94 -20 137 -20l27 2l12 -12q-11 -144 -41 -328l-12 -14q-32 -11 -78 -8q0 48 -4 106q-7 103 -70 156t-174 53q-126 0 -202 -67t-76 -171q0 -65 26 -110q28 -46 73 -84.5t142 -102.5q162 -109 224 -194q67 -88 67 -213q0 -178 -125 -292t-313 -114q-83 0 -170 19zM647 1550
l-12 6l-193 267q16 28 56 43h12l203 -180h20l303 182q28 -22 37 -56l-2 -10l-305 -252h-119z" />
    <glyph glyph-name="scaron" unicode="&#x161;" horiz-adv-x="653" 
d="M-84 57q0 59 53 136h23q82 -119 174 -119q55 0 89 39.5t34 97.5q0 39 -18.5 74t-65.5 96q-61 80 -88 137.5t-27 130.5q0 75 51 142.5t127 106t152 38.5q67 0 108 -24t41 -66q0 -30 -15.5 -64.5t-39.5 -58.5h-22q-89 121 -164 121q-40 0 -66 -33.5t-26 -81.5
q0 -62 24 -112t84 -130q52 -67 74 -111.5t22 -92.5q0 -55 -35.5 -114t-91.5 -103q-122 -93 -247 -93q-68 0 -109 24t-41 60zM381 1092l-12 10l-123 346q17 20 71 29l11 -7l114 -219h21l248 230q16 -1 32.5 -13t24.5 -26l2 -12l-297 -338h-92z" />
    <glyph glyph-name="uni0162" unicode="&#x162;" horiz-adv-x="1323" 
d="M264 66l10 6q41 6 127 26q22 7 33 16t15 31l204 977q19 87 19 125q0 24 -10.5 35t-34.5 12q-54 4 -82 4h-86q-70 0 -101 -8q-38 -10 -60.5 -35t-41.5 -75q-12 -34 -55 -166l-15 -8q-39 3 -80 22q40 222 76 369l17 8q99 -12 180 -14q195 -5 407 -5q225 0 445 5
q91 3 158 12l12 -10q-41 -272 -60 -371l-8 -10q-28 -14 -84 -11q2 39 2 160q0 68 -21 97.5t-75 35.5l-90 4h-55q-48 0 -95 -6q-54 -9 -67 -65l-203 -987q-16 -91 -16 -105q0 -17 7.5 -26t27.5 -13q27 -6 141 -26q-8 -55 -19 -76l-6 -4q-163 10 -268 10q-104 0 -264 -10
q0 33 16 76zM264 -559l4 10q96 20 156.5 63t60.5 101q0 65 -94 102q-24 9 -24 33q0 42 38.5 72.5t92.5 30.5q51 0 91 -41.5t40 -102.5q0 -117 -79.5 -201t-221.5 -116q-41 23 -64 49z" />
    <glyph glyph-name="uni0163" unicode="&#x163;" horiz-adv-x="655" 
d="M4 78q0 52 45 213l84 321q6 21 23 86q28 109 28 121q0 17 -16 17q-74 0 -170 -7q0 41 14 66l6 6l162 25q34 3 43 28l60 125l28 64l8 6q36 4 123 4l-73 -235q41 8 102 8h172q-16 -61 -35 -86l-10 -6l-244 4l-141 -555l-18 -72q-13 -57 -13 -76q0 -29 29 -29q30 0 108 66
q75 63 146 150l14 -5q3 -45 -6 -100q-83 -108 -178 -176t-174 -68q-52 0 -84.5 28t-32.5 77zM-141 -559l4 10q96 20 156.5 63t60.5 101q0 65 -94 102q-25 9 -25 33q0 42 38.5 72.5t92.5 30.5q51 0 91 -41.5t40 -102.5q0 -117 -79.5 -201t-221.5 -116q-39 22 -63 49z" />
    <glyph glyph-name="Tcaron" unicode="&#x164;" horiz-adv-x="1323" 
d="M264 66l10 6q41 6 127 26q22 7 33 16t15 31l204 977q19 87 19 125q0 24 -10.5 35t-34.5 12q-54 4 -82 4h-86q-70 0 -101 -8q-38 -10 -60.5 -35t-41.5 -75q-12 -34 -55 -166l-15 -8q-39 3 -80 22q40 222 76 369l17 8q99 -12 180 -14q195 -5 407 -5q225 0 445 5
q91 3 158 12l12 -10q-41 -272 -60 -371l-8 -10q-28 -14 -84 -11q2 39 2 160q0 68 -21 97.5t-75 35.5l-90 4h-55q-48 0 -95 -6q-54 -9 -67 -65l-203 -987q-16 -91 -16 -105q0 -17 7.5 -26t27.5 -13q27 -6 141 -26q-8 -55 -19 -76l-6 -4q-163 10 -268 10q-104 0 -264 -10
q0 33 16 76zM758 1550l-13 6l-192 267q16 28 55 43h13l202 -180h21l303 182q28 -22 37 -56l-2 -10l-305 -252h-119z" />
    <glyph glyph-name="tcaron" unicode="&#x165;" horiz-adv-x="655" 
d="M4 78q0 52 45 213l84 321q6 21 23 86q28 109 28 121q0 17 -16 17q-74 0 -170 -7q0 41 14 66l6 6l162 25q34 3 43 28l60 125l28 64l8 6q36 4 123 4l-73 -235q41 8 102 8h172q-16 -61 -35 -86l-10 -6l-244 4l-141 -555l-18 -72q-13 -57 -13 -76q0 -29 29 -29q30 0 108 66
q75 63 146 150l14 -5q3 -45 -6 -100q-83 -108 -178 -176t-174 -68q-52 0 -84.5 28t-32.5 77zM539 1053v10q118 71 160 116t42 111q0 54 -30 115q-17 39 -17 49q0 24 21.5 38.5t54.5 14.5q58 0 93.5 -29.5t35.5 -82.5q0 -110 -78 -207t-221 -172q-37 13 -61 37z" />
    <glyph glyph-name="Tbar" unicode="&#x166;" horiz-adv-x="1323" 
d="M264 66l10 6l127 26q22 7 33 16t15 31l104 504q-41 -6 -109 -6h-143q5 40 23 82l12 10h235l82 387q19 90 19 135q0 31 -45 37q-54 4 -82 4h-94q-89 0 -127 -24t-68 -94q-12 -34 -55 -166l-15 -8q-39 3 -80 22q40 222 76 369l17 8q99 -12 180 -14q200 -5 407 -5h181
q107 0 264 5q91 3 158 12l12 -10q-41 -272 -60 -371l-8 -10q-28 -14 -84 -11q2 37 2 154q0 70 -27.5 103.5t-93.5 37.5q-23 2 -104 2q-76 0 -90 -2q-45 -5 -62 -16t-24 -45l-107 -514q52 14 150 14h129q-8 -52 -25 -82l-14 -10h-256l-82 -403q-16 -91 -16 -103
q0 -20 8.5 -29.5t32.5 -13.5l135 -24q-8 -55 -19 -76l-6 -4q-163 10 -268 10q-104 0 -264 -10q0 33 16 76z" />
    <glyph glyph-name="tbar" unicode="&#x167;" horiz-adv-x="655" 
d="M-4 78q0 51 45 213l65 256q-44 -6 -96 -6h-80q1 19 15 71l8 11h174q49 171 49 196q0 17 -16 17q-74 0 -170 -7q0 41 14 66l6 6l162 25q34 3 43 28l59 125l29 64l8 6q36 4 123 4l-74 -235q41 8 103 8h172q-16 -61 -35 -86l-10 -6l-244 4l-57 -226q79 11 129 11h164
q-3 -40 -17 -72l-8 -10h-287l-65 -258l-19 -72q-12 -53 -12 -76q0 -29 29 -29q30 0 108 66q75 63 146 150l14 -5q3 -45 -6 -100q-83 -108 -178 -176t-174 -68q-52 0 -84.5 28t-32.5 77z" />
    <glyph glyph-name="Utilde" unicode="&#x168;" horiz-adv-x="1540" 
d="M193 338q0 101 65 407l76 367q22 110 22 137q0 18 -9.5 27.5t-33.5 15.5q-82 18 -110 23q3 46 18 76l6 4q117 -9 248 -9q134 0 248 9q-3 -35 -21 -76l-10 -6q-17 -3 -106 -27q-26 -8 -35 -17.5t-16 -41.5l-107 -502q-55 -259 -55 -381q0 -272 319 -272q197 0 301 104
q106 112 164 391l111 557q20 97 20 127q0 14 -6.5 21.5t-26.5 13.5q-40 11 -129 29q3 38 19 76l6 4q102 -9 217 -9q114 0 234 9q-3 -39 -21 -76l-10 -6l-107 -27q-19 -4 -27.5 -16.5t-13.5 -38.5l-153 -729q-58 -275 -191 -402q-139 -127 -409 -127q-238 0 -357.5 92.5
t-119.5 272.5zM602 1595q132 170 240 170q55 0 151 -41q83 -38 133 -38q74 0 150 108l8 2q29 -40 37 -59q-65 -97 -116 -141t-105 -44q-17 0 -31.5 2t-40.5 10.5t-35 11.5t-51 19q-91 39 -137 39q-68 0 -152 -90l-8 -2q-19 16 -43 53z" />
    <glyph glyph-name="utilde" unicode="&#x169;" horiz-adv-x="1126" 
d="M59 96q0 62 60 248l104 313l21 62q14 43 14 59q0 17 -16 17q-27 0 -87.5 -46.5t-131.5 -125.5q-10 40 -7 82l4 14q75 94 173.5 155.5t173.5 61.5q35 0 55 -18t20 -50q0 -47 -47 -178l-18 -57l-101 -307q-53 -161 -53 -201q0 -35 29 -35q28 -2 83.5 45.5t120 127
t136 194.5t125.5 235q47 99 100 234l17 10q6 2 40 2q42 0 82 -12q-146 -501 -202 -731q-2 -14 -5 -28.5t-4.5 -21.5t-1.5 -10q0 -20 17 -20q55 0 205 184l14 -4q-9 -73 -31 -129q-74 -88 -150 -140.5t-136 -52.5q-36 0 -57 22t-21 60q0 41 26 123l92 283h-16
q-131 -231 -267.5 -359.5t-236.5 -128.5q-52 0 -87.5 34.5t-35.5 88.5zM340 1174q131 165 240 165q54 0 149 -36q84 -35 129 -35q58 0 137 110l9 2q26 -37 36 -59q-116 -184 -206 -184q-56 0 -156 41q-91 34 -135 34q-68 0 -152 -90l-8 -2q-18 15 -43 54z" />
    <glyph glyph-name="Umacron" unicode="&#x16a;" horiz-adv-x="1540" 
d="M193 338q0 101 65 407l76 367q22 110 22 137q0 18 -9.5 27.5t-33.5 15.5q-82 18 -110 23q3 46 18 76l6 4q117 -9 248 -9q134 0 248 9q-3 -35 -21 -76l-10 -6q-17 -3 -106 -27q-26 -8 -35 -17.5t-16 -41.5l-107 -502q-55 -259 -55 -381q0 -272 319 -272q197 0 301 104
q106 112 164 391l111 557q20 97 20 127q0 14 -6.5 21.5t-26.5 13.5q-40 11 -129 29q3 38 19 76l6 4q102 -9 217 -9q114 0 234 9q-3 -39 -21 -76l-10 -6l-107 -27q-19 -4 -27.5 -16.5t-13.5 -38.5l-153 -729q-58 -275 -191 -402q-139 -127 -409 -127q-238 0 -357.5 92.5
t-119.5 272.5zM715 1696l10 6h524q-3 -53 -22 -105l-10 -6h-527q6 58 25 105z" />
    <glyph glyph-name="umacron" unicode="&#x16b;" horiz-adv-x="1126" 
d="M59 96q0 62 60 248l104 313l21 62q14 43 14 59q0 17 -16 17q-27 0 -87.5 -46.5t-131.5 -125.5q-10 40 -7 82l4 14q75 94 173.5 155.5t173.5 61.5q35 0 55 -18t20 -50q0 -47 -47 -178l-18 -57l-101 -307q-53 -161 -53 -201q0 -35 29 -35q28 -2 83.5 45.5t120 127
t136 194.5t125.5 235q47 99 100 234l17 10q6 2 40 2q42 0 82 -12q-146 -501 -202 -731q-2 -14 -5 -28.5t-4.5 -21.5t-1.5 -10q0 -20 17 -20q55 0 205 184l14 -4q-9 -73 -31 -129q-74 -88 -150 -140.5t-136 -52.5q-36 0 -57 22t-21 60q0 41 26 123l92 283h-16
q-131 -231 -267.5 -359.5t-236.5 -128.5q-52 0 -87.5 34.5t-35.5 88.5zM434 1276l10 6h525q-3 -54 -23 -104l-12 -7h-528q18 79 28 105z" />
    <glyph glyph-name="Ubreve" unicode="&#x16c;" horiz-adv-x="1540" 
d="M193 338q0 101 65 407l76 367q22 110 22 137q0 18 -9.5 27.5t-33.5 15.5q-82 18 -110 23q3 46 18 76l6 4q117 -9 248 -9q134 0 248 9q-3 -35 -21 -76l-10 -6q-17 -3 -106 -27q-26 -8 -35 -17.5t-16 -41.5l-107 -502q-55 -259 -55 -381q0 -272 319 -272q197 0 301 104
q106 112 164 391l111 557q20 97 20 127q0 14 -6.5 21.5t-26.5 13.5q-40 11 -129 29q3 38 19 76l6 4q102 -9 217 -9q114 0 234 9q-3 -39 -21 -76l-10 -6l-107 -27q-19 -4 -27.5 -16.5t-13.5 -38.5l-153 -729q-58 -275 -191 -402q-139 -127 -409 -127q-238 0 -357.5 92.5
t-119.5 272.5zM696 1798l4 10q21 21 64 33q31 -83 86.5 -129.5t126.5 -46.5q145 0 268 176l10 6q30 -30 41 -71q-57 -105 -145 -171.5t-188 -66.5q-102 0 -173 70t-94 190z" />
    <glyph glyph-name="ubreve" unicode="&#x16d;" horiz-adv-x="1126" 
d="M59 96q0 62 60 248l104 313l21 62q14 43 14 59q0 17 -16 17q-27 0 -87.5 -46.5t-131.5 -125.5q-10 40 -7 82l4 14q75 94 173.5 155.5t173.5 61.5q35 0 55 -18t20 -50q0 -47 -47 -178l-18 -57l-101 -307q-53 -161 -53 -201q0 -35 29 -35q28 -2 83.5 45.5t120 127
t136 194.5t125.5 235q47 99 100 234l17 10q6 2 40 2q42 0 82 -12q-146 -501 -202 -731q-2 -14 -5 -28.5t-4.5 -21.5t-1.5 -10q0 -20 17 -20q55 0 205 184l14 -4q-9 -73 -31 -129q-74 -88 -150 -140.5t-136 -52.5q-36 0 -57 22t-21 60q0 41 26 123l92 283h-16
q-131 -231 -267.5 -359.5t-236.5 -128.5q-52 0 -87.5 34.5t-35.5 88.5zM397 1370l4 10q24 24 58 33q19 -89 71.5 -146t122.5 -57q78 0 157.5 57t129.5 146l10 6q19 -22 35 -71q-46 -108 -143 -183q-95 -71 -199 -71q-101 0 -164.5 73t-81.5 203z" />
    <glyph glyph-name="Uring" unicode="&#x16e;" horiz-adv-x="1540" 
d="M193 338q0 101 65 407l76 367q22 110 22 137q0 18 -9.5 27.5t-33.5 15.5q-82 18 -110 23q3 46 18 76l6 4q117 -9 248 -9q134 0 248 9q-3 -35 -21 -76l-10 -6q-17 -3 -106 -27q-26 -8 -35 -17.5t-16 -41.5l-107 -502q-55 -259 -55 -381q0 -272 319 -272q197 0 301 104
q106 112 164 391l111 557q20 97 20 127q0 14 -6.5 21.5t-26.5 13.5q-40 11 -129 29q3 38 19 76l6 4q102 -9 217 -9q114 0 234 9q-3 -39 -21 -76l-10 -6l-107 -27q-19 -4 -27.5 -16.5t-13.5 -38.5l-153 -729q-58 -275 -191 -402q-139 -127 -409 -127q-238 0 -357.5 92.5
t-119.5 272.5zM756 1692q0 92 69 147t176 55q84 0 141.5 -46.5t57.5 -114.5q0 -95 -68 -152t-174 -57q-87 0 -144.5 49t-57.5 119zM1090 1722q0 41 -29 69t-70 28q-55 0 -90 -32.5t-35 -88.5q0 -41 30.5 -70t74.5 -29q54 0 86.5 33.5t32.5 89.5z" />
    <glyph glyph-name="uring" unicode="&#x16f;" horiz-adv-x="1126" 
d="M59 96q0 62 60 248l104 313l21 62q14 43 14 59q0 17 -16 17q-27 0 -87.5 -46.5t-131.5 -125.5q-10 40 -7 82l4 14q75 94 173.5 155.5t173.5 61.5q35 0 55 -18t20 -50q0 -47 -47 -178l-18 -57l-101 -307q-53 -161 -53 -201q0 -35 29 -35q28 -2 83.5 45.5t120 127
t136 194.5t125.5 235q47 99 100 234l17 10q6 2 40 2q42 0 82 -12q-146 -501 -202 -731q-2 -14 -5 -28.5t-4.5 -21.5t-1.5 -10q0 -20 17 -20q55 0 205 184l14 -4q-9 -73 -31 -129q-74 -88 -150 -140.5t-136 -52.5q-36 0 -57 22t-21 60q0 41 26 123l92 283h-16
q-131 -231 -267.5 -359.5t-236.5 -128.5q-52 0 -87.5 34.5t-35.5 88.5zM473 1221q0 93 74 161t182 68q84 0 133 -43t49 -113q0 -98 -73 -168q-69 -69 -172 -69q-91 0 -142 44t-51 120zM801 1284q0 42 -23 66t-61 24q-56 0 -95.5 -42.5t-39.5 -98.5q0 -47 24.5 -72.5
t69.5 -25.5q55 0 90 42.5t35 106.5z" />
    <glyph glyph-name="Uhungarumlaut" unicode="&#x170;" horiz-adv-x="1540" 
d="M193 338q0 101 65 407l76 367q22 110 22 137q0 18 -9.5 27.5t-33.5 15.5q-82 18 -110 23q3 46 18 76l6 4q117 -9 248 -9q134 0 248 9q-3 -35 -21 -76l-10 -6q-17 -3 -106 -27q-26 -8 -35 -17.5t-16 -41.5l-107 -502q-55 -259 -55 -381q0 -272 319 -272q197 0 301 104
q106 112 164 391l111 557q20 97 20 127q0 14 -6.5 21.5t-26.5 13.5q-40 11 -129 29q3 38 19 76l6 4q102 -9 217 -9q114 0 234 9q-3 -39 -21 -76l-10 -6l-107 -27q-19 -4 -27.5 -16.5t-13.5 -38.5l-153 -729q-58 -275 -191 -402q-139 -127 -409 -127q-238 0 -357.5 92.5
t-119.5 272.5zM674 1550v11l223 264q52 8 141 8l62 -2v-16l-363 -295q-17 2 -36.5 11t-26.5 19zM1040 1550v11l224 264q52 8 141 8l61 -2v-16l-362 -295q-17 2 -37 11t-27 19z" />
    <glyph glyph-name="uhungarumlaut" unicode="&#x171;" horiz-adv-x="1126" 
d="M59 96q0 62 60 248l104 313l21 62q14 43 14 59q0 17 -16 17q-27 0 -87.5 -46.5t-131.5 -125.5q-10 40 -7 82l4 14q75 94 173.5 155.5t173.5 61.5q35 0 55 -18t20 -50q0 -47 -47 -178l-18 -57l-101 -307q-53 -161 -53 -201q0 -35 29 -35q28 -2 83.5 45.5t120 127
t136 194.5t125.5 235q47 99 100 234l17 10q6 2 40 2q42 0 82 -12q-146 -501 -202 -731q-2 -14 -5 -28.5t-4.5 -21.5t-1.5 -10q0 -20 17 -20q55 0 205 184l14 -4q-9 -73 -31 -129q-74 -88 -150 -140.5t-136 -52.5q-36 0 -57 22t-21 60q0 41 26 123l92 283h-16
q-131 -231 -267.5 -359.5t-236.5 -128.5q-52 0 -87.5 34.5t-35.5 88.5zM414 1073v12l204 377q104 11 203 11v-15l-344 -416q-14 2 -35 11.5t-28 19.5zM780 1073v12l205 377q105 11 199 11v-15l-344 -416q-14 2 -33.5 11.5t-26.5 19.5z" />
    <glyph glyph-name="Uogonek" unicode="&#x172;" horiz-adv-x="1540" 
d="M483 -375q0 200 287 350v9q-64 -11 -100 -11q-237 0 -357 91t-120 266q0 100 51 344q2 12 5.5 27t5.5 25.5t3 18.5l90 439q8 36 8 65q0 18 -9.5 27.5t-33.5 15.5q-82 18 -110 23q3 46 18 76l6 4q117 -9 248 -9q134 0 248 9q-3 -35 -21 -76l-10 -6q-17 -3 -106 -27
q-26 -8 -35 -17.5t-16 -41.5l-107 -502q-55 -259 -55 -381q0 -272 319 -272q197 0 301 104q106 112 164 391l111 557q20 103 20 131q0 23 -33 31q-107 25 -129 29q3 38 19 76l6 4q102 -9 217 -9q114 0 234 9q-3 -39 -21 -76l-10 -6l-107 -27q-20 -6 -27.5 -16t-13.5 -39
l-153 -729q-38 -184 -110.5 -302t-188.5 -171q-162 -73 -243 -167.5t-81 -199.5q0 -44 23 -71t61 -27q60 0 139 55l13 -2q0 -39 -11 -76q-101 -82 -206 -82q-82 0 -132.5 48.5t-50.5 117.5z" />
    <glyph glyph-name="uogonek" unicode="&#x173;" horiz-adv-x="1126" 
d="M59 96q0 62 60 248l104 313l21 62q14 43 14 59q0 17 -16 17q-27 0 -87.5 -46.5t-131.5 -125.5q-10 40 -7 82l4 14q75 94 173.5 155.5t173.5 61.5q35 0 55 -18t20 -50q0 -47 -47 -178l-18 -57l-101 -307q-53 -161 -53 -201q0 -35 29 -35q28 -2 83.5 45.5t120 127
t136 194.5t125.5 235q47 99 100 234l17 10q6 2 40 2q42 0 82 -12q-146 -501 -202 -731q-3 -15 -5.5 -29t-4 -20.5t-1.5 -8.5q0 -22 17 -22q55 0 205 184l14 -4q-9 -73 -31 -129l-49 -53l-47 -52q-98 -103 -156 -172q-108 -124 -108 -229q0 -44 23 -70t61 -26q63 0 139 55
l12 -2q0 -43 -10 -76q-42 -36 -102 -59t-111 -23q-83 0 -129.5 43t-46.5 111q0 73 64 156t217 208v9q-19 -13 -50 -13q-27 0 -49 23t-22 57q0 40 26 127.5t92 280.5h-16q-131 -231 -267.5 -359.5t-236.5 -128.5q-52 0 -87.5 34.5t-35.5 88.5z" />
    <glyph glyph-name="Wcircumflex" unicode="&#x174;" horiz-adv-x="2109" 
d="M420 266q0 1 -0.5 7.5t-1.5 13t-2.5 18.5t-3.5 24t-4.5 30t-4.5 36t-5.5 42t-6.5 48l-100 742q-5 32 -15 47.5t-30 19.5q-52 12 -115 19q6 47 19 76l6 4q103 -7 256 -7q147 0 247 7q0 -48 -14 -80l-8 -4l-123 -19q-41 -6 -41 -45q0 -77 21 -241l34 -279q35 -271 47 -518
h11q57 145 172 385l215 457q82 173 129 299l18 10q58 10 144 10l39 -295l63 -483q41 -343 45 -383h10l115 246l66 137l178 375q106 217 106 278q0 19 -7.5 29t-25.5 14q-66 17 -129 25q3 41 19 73l14 7q225 -5 236 -5q137 0 233 7q0 -50 -14 -78l-6 -6q-35 -4 -76 -15
q-40 -11 -64 -33.5t-49 -78.5l-397 -824q-54 -116 -180 -356l-19 -12q-52 -10 -94 -10q-37 0 -47 2l-63 473l-48 362l-34 281h-11l-143 -307l-203 -431q-93 -197 -164 -358l-18 -12q-52 -10 -94 -10q-37 0 -47 2q-2 25 -35 284zM899 1563l2 10l309 262h119l12 -6l203 -277
q-17 -30 -61 -47h-13l-204 183h-21l-301 -185q-38 25 -45 60z" />
    <glyph glyph-name="wcircumflex" unicode="&#x175;" horiz-adv-x="1521" 
d="M70 129q0 56 57 250l70 231q45 145 45 174q0 27 -25 27q-26 0 -83 -48t-124 -124q-6 21 -6 82l4 14q75 96 157.5 148.5t158.5 52.5q40 0 63 -23t23 -59q0 -66 -58 -258l-69 -238q-13 -40 -15 -47q-37 -101 -37 -157q0 -64 58 -64q55 0 150.5 100t197.5 265l35 57
q48 77 71 164l13 67q5 64 16 97q21 94 111 94q65 0 65 -64q0 -47 -53 -163q-34 -66 -43 -105q-64 -229 -64 -387q0 -68 20.5 -98.5t63.5 -30.5q58 0 131.5 54t139.5 149q114 164 114 362q0 150 -92 277l11 16q123 0 179 -44.5t56 -147.5q0 -90 -43 -220q-42 -126 -121 -243
q-95 -140 -217 -226q-125 -90 -227 -90q-162 0 -162 164q0 63 57 262h-12q-97 -174 -225 -299q-133 -127 -234 -127q-72 0 -114.5 41.5t-42.5 114.5zM645 1110l-2 12l291 344h108l13 -10l116 -354q-25 -29 -71 -29l-10 6l-117 226h-21l-252 -238q-17 1 -32 13.5t-23 29.5z
" />
    </font>
</defs>
</svg>
